无限风暴[中文字幕].Infinite.Storm.2022.1080p.BluRay.DTS.x265-10bit-ENTHD 4.87GB

版主小s 5月前 367

✔资源类型:暂未分类   ✔电影年份:2022   ✔电影地区:欧美   ✔电影分类:剧情

◎译  名 无限风暴
◎片  名 Infinite Storm
◎年  代 2022
◎产  地 英国 / 波兰 / 澳大利亚
◎类  别 剧情 / 惊悚
◎语  言 英语
◎上映日期 2022-03-25(美国)
◎IMDb链接 https://www.imdb.com/title/tt14060232/
◎豆瓣评分 5.9/10 (1198人评价)
◎豆瓣链接 https://movie.douban.com/subject/35351430/
◎片  长 97分钟
◎导  演 玛高扎塔·施莫夫兹卡 Malgorzata Szumowska (id:1033346)
◎编  剧 约书亚·罗林斯 Joshua Rollins (id:1251980)
       帕姆·巴勒斯 Pam Bales (id:1469369)
◎演  员 娜奥米·沃茨 Naomi Watts (id:1016675)
       丹尼斯·欧哈拉 Denis O'Hare (id:1013900)
       比利·豪尔 Billy Howle (id:1345504)
       可可·萨姆纳 Coco Sumner (id:1023168)
       帕克·索耶 Parker Sawyers (id:1349433)
       约书亚·罗林斯 Joshua Rollins (id:1251980)

◎简  介
  影片根据泰·加涅发表的的文章《高处:雪地里的脚印引发了一场温情救援》(High Places: Footprints i n the Snow Lead to an Emotional Rescue,暂译)改编,讲述了母亲、护士兼登山爱好者帕姆·贝尔斯的故事,当她独自跋涉华盛顿山,被暴风雪困住时,她遇到了陌生的登山者并为其展开了一场大胆的营救。
  1. ##### MediaInfo ######
  2. General
  3. Unique ID                                : 327998445974344057592413201339210468874 (0xF6C233F009DB126141181A97B53B0E0A)
  4. Complete name                            : Infinite.Storm.2022.1080p.BluRay.DTS.x265-10bit-ENTHD.mkv
  5. Format                                   : Matroska
  6. Format version                           : Version 4
  7. File size                                : 4.87 GiB
  8. Duration                                 : 1 h 37 min
  9. Overall bit rate                         : 7 146 kb/s
  10. Movie name                               : Infinite Storm 2022 1080p BluRay DTS x265-10bit-HDS
  11. Encoded date                             : UTC 2022-06-16 07:16:26
  12. Writing application                      : mkvmerge v67.0.0 ('Under Stars') 64-bit
  13. Writing library                          : libebml v1.4.2 + libmatroska v1.6.4
  14. Video
  15. ID                                       : 1
  16. Format                                   : HEVC
  17. Format/Info                              : High Efficiency Video Coding
  18. Format profile                           : Main 10@L5.1@High
  19. Codec ID                                 : V_MPEGH/ISO/HEVC
  20. Duration                                 : 1 h 37 min
  21. Bit rate                                 : 5 620 kb/s
  22. Width                                    : 1 920 pixels
  23. Height                                   : 804 pixels
  24. Display aspect ratio                     : 2.40:1
  25. Frame rate mode                          : Constant
  26. Frame rate                               : 23.976 (24000/1001/53354) FPS
  27. Color space                              : YUV
  28. Chroma subsampling                       : 4:2:0
  29. Bit depth                                : 10 bits
  30. Bits/(Pixel*Frame)                       : 0.152
  31. Stream size                              : 3.83 GiB (79%)
  32. Title                                    : meyu@HDSky
  33. Writing library                          : x265 - H.265/HEVC codec
  34. Default                                  : Yes
  35. Forced                                   : No
  36. Audio
  37. ID                                       : 2
  38. Format                                   : DTS
  39. Format/Info                              : Digital Theater Systems
  40. Codec ID                                 : A_DTS
  41. Duration                                 : 1 h 37 min
  42. Bit rate mode                            : Constant
  43. Bit rate                                 : 1 509 kb/s
  44. Channel(s)                               : 6 channels
  45. Channel layout                           : C L R Ls Rs LFE
  46. Sampling rate                            : 48.0 kHz
  47. Frame rate                               : 93.750 FPS (512 SPF)
  48. Bit depth                                : 24 bits
  49. Compression mode                         : Lossy
  50. Stream size                              : 1.03 GiB (21%)
  51. Title                                    : English
  52. Language                                 : English
  53. Default                                  : Yes
  54. Forced                                   : No
  55. Text #1
  56. ID                                       : 3
  57. Format                                   : PGS
  58. Muxing mode                              : zlib
  59. Codec ID                                 : S_HDMV/PGS
  60. Codec ID/Info                            : Picture based subtitle format used on BDs/HD-DVDs
  61. Duration                                 : 1 h 30 min
  62. Bit rate                                 : 20.0 kb/s
  63. Count of elements                        : 1029
  64. Stream size                              : 13.0 MiB (0%)
  65. Title                                    : CHS&ENG
  66. Language                                 : Chinese
  67. Default                                  : Yes
  68. Forced                                   : No
  69. Text #2
  70. ID                                       : 4
  71. Format                                   : PGS
  72. Muxing mode                              : zlib
  73. Codec ID                                 : S_HDMV/PGS
  74. Codec ID/Info                            : Picture based subtitle format used on BDs/HD-DVDs
  75. Duration                                 : 1 h 31 min
  76. Bit rate                                 : 10.5 kb/s
  77. Count of elements                        : 1398
  78. Stream size                              : 6.86 MiB (0%)
  79. Title                                    : ENG
  80. Language                                 : English
  81. Default                                  : Yes
  82. Forced                                   : No
  83. Menu
  84. 00:00:00.000                             : en:第 01 章
  85. 00:10:59.033                             : en:第 02 章
  86. 00:24:35.766                             : en:第 03 章
  87. 00:34:41.663                             : en:第 04 章
  88. 00:49:35.055                             : en:第 05 章
  89. 01:01:04.619                             : en:第 06 章
  90. 01:14:03.939                             : en:第 07 章
  91. 01:31:59.305                             : en:第 08 章





此处一般会放置磁力链或种子下载链接,不过此链接需要注册会员才能看到,点击“立即注册”
磁力链下载【下载链接仅对注册会员开放,登陆后可见】
BT9527电影天堂 1、BT9527电影天堂提供的BT文件均来源于互联网抓取,只供网友学习交流、技术提升使用。
2、我们遵守BitTorrent点对点协议原则,任何版权问题请联系原资源发布商,我们不处理任何版权纠纷,谢谢!如有争议请联系邮箱:BT9527#hotmail.com(#换成@)
3、如果您发现某页面或地址有错误,请联系站长邮箱BT9527#hotmail.com(#换成@),我们会尽快处理。您的热心是对BT9527电影天堂最大的支持。
4、本站建议去正规影院观看电影以支持电影行业发展。
最新回复 (0)

你可以在 登录 or 注册 后,对此帖发表评论!

返回
发新帖