恰恰丝滑[中文字幕].Cha.Cha.Real.Smooth.2022.2160p.ATVP.WEB-DL.x265.10bit.HDR.DD5.1.Atmos-CM 19.42GB

版主小s 5月前 373

◎标 题 恰恰丝滑

◎译 名 恰恰真滑

◎片 名 Cha Cha Real Smooth

◎年 代 2022

◎产 地 美国

◎类 别 剧情

◎语 言 英语

◎上映日期 2022-01-23(圣丹斯电影节) / 2022-06-17(美国)

◎IMDb评分 8/10 (502人评价)

◎IMDb链接 https://www.imdb.com/title/tt14376344/

◎豆瓣链接 https://movie.douban.com/subject/35694772/

◎片 长 107分钟

◎导 演 库珀·拉夫 Cooper Raiff

◎编 剧 库珀·拉夫 Cooper Raiff

◎演 员 达科塔·约翰逊 Dakota Johnson

库珀·拉夫 Cooper Raiff

莱斯利·曼恩 Leslie Mann

布拉德·加内特 Brad Garrett

劳尔·卡斯提洛 Raúl Castillo

奥德娅·拉什 Odeya Rush

凯莉·奥沙利文 Kelly O'Sullivan

科莉·丹尼利 Corrie Danieley

汤米·拉菲特 Tommy Lafitte

Daisy Jade

布伦娜·谢尔曼 Brenna Sherman

◎简 介

A young man who works as a Bar Mitzvah party host strikes up a friendship with a mother and her autistic daughter.

  1. Video

  2. ID : 1

  3. Format : HEVC

  4. Format/Info : High Efficiency Video Coding

  5. Format profile : Main 10@L5@High

  6. HDR format : SMPTE ST 2086, HDR10 compatible

  7. Codec ID : V_MPEGH/ISO/HEVC

  8. Duration : 1 h 48 min

  9. Bit rate : 24.9 Mb/s

  10. Width : 3 840 pixels

  11. Height : 2 076 pixels

  12. Display aspect ratio : 1.85:1

  13. Frame rate mode : Constant

  14. Frame rate : 23.976 FPS

  15. Color space : YUV

  16. Chroma subsampling : 4:2:0 (Type 2)

  17. Bit depth : 10 bits

  18. Bits/(Pixel*Frame) : 0.130

  19. Stream size : 18.8 GiB (97%)

  20. Language : English

  21. Default : Yes

  22. Forced : No

  23. Color range : Limited

  24. Color primaries : BT.2020

  25. Transfer characteristics : PQ

  26. Matrix coefficients : BT.2020 non-constant

  27. Mastering display color primaries : Display P3

  28. Mastering display luminance : min: 0.0050 cd/m2, max: 1000 cd/m2

  29. Maximum Content Light Level : 1449 cd/m2

  30. Maximum Frame-Average Light Level : 235 cd/m2


  31. Audio

  32. ID : 2

  33. Format : E-AC-3 JOC

  34. Format/Info : Enhanced AC-3 with Joint Object Coding

  35. Commercial name : Dolby Digital Plus with Dolby Atmos

  36. Codec ID : A_EAC3

  37. Duration : 1 h 48 min

  38. Bit rate mode : Constant

  39. Bit rate : 768 kb/s

  40. Channel(s) : 6 channels

  41. Channel layout : L R C LFE Ls Rs

  42. Sampling rate : 48.0 kHz

  43. Frame rate : 31.250 FPS (1536 SPF)

  44. Compression mode : Lossy

  45. Stream size : 596 MiB (3%)

  46. Language : English

  47. Service kind : Complete Main

  48. Default : Yes

  49. Forced : No

  50. Complexity index : 16

  51. Number of dynamic objects : 15

  52. Bed channel count : 1 channel

  53. Bed channel configuration : LFE


  54. Text #1

  55. ID : 3

  56. Format : UTF-8

  57. Codec ID : S_TEXT/UTF8

  58. Codec ID/Info : UTF-8 Plain Text

  59. Duration : 1 h 40 min

  60. Bit rate : 64 b/s

  61. Count of elements : 1462

  62. Stream size : 47.6 KiB (0%)

  63. Language : English

  64. Default : No

  65. Forced : No


  66. Text #2

  67. ID : 4

  68. Format : UTF-8

  69. Codec ID : S_TEXT/UTF8

  70. Codec ID/Info : UTF-8 Plain Text

  71. Duration : 1 h 42 min

  72. Bit rate : 69 b/s

  73. Count of elements : 1613

  74. Stream size : 52.1 KiB (0%)

  75. Title : SDH

  76. Language : English

  77. Default : No

  78. Forced : No


  79. Text #3

  80. ID : 5

  81. Format : UTF-8

  82. Codec ID : S_TEXT/UTF8

  83. Codec ID/Info : UTF-8 Plain Text

  84. Duration : 1 h 47 min

  85. Bit rate : 89 b/s

  86. Count of elements : 1484

  87. Stream size : 70.4 KiB (0%)

  88. Language : Arabic

  89. Default : No

  90. Forced : No


  91. Text #4

  92. ID : 6

  93. Format : UTF-8

  94. Codec ID : S_TEXT/UTF8

  95. Codec ID/Info : UTF-8 Plain Text

  96. Duration : 1 h 47 min

  97. Bit rate : 84 b/s

  98. Count of elements : 1390

  99. Stream size : 66.8 KiB (0%)

  100. Language : Bulgarian

  101. Default : No

  102. Forced : No


  103. Text #5

  104. ID : 7

  105. Format : UTF-8

  106. Codec ID : S_TEXT/UTF8

  107. Codec ID/Info : UTF-8 Plain Text

  108. Duration : 1 h 46 min

  109. Bit rate : 56 b/s

  110. Count of elements : 1410

  111. Stream size : 44.2 KiB (0%)

  112. Language : Czech

  113. Default : No

  114. Forced : No


  115. Text #6

  116. ID : 8

  117. Format : UTF-8

  118. Codec ID : S_TEXT/UTF8

  119. Codec ID/Info : UTF-8 Plain Text

  120. Duration : 1 h 46 min

  121. Bit rate : 57 b/s

  122. Count of elements : 1229

  123. Stream size : 44.5 KiB (0%)

  124. Language : Danish

  125. Default : No

  126. Forced : No


  127. Text #7

  128. ID : 9

  129. Format : UTF-8

  130. Codec ID : S_TEXT/UTF8

  131. Codec ID/Info : UTF-8 Plain Text

  132. Duration : 1 h 46 min

  133. Bit rate : 53 b/s

  134. Count of elements : 1379

  135. Stream size : 41.5 KiB (0%)

  136. Language : German

  137. Default : No

  138. Forced : No


  139. Text #8

  140. ID : 10

  141. Format : UTF-8

  142. Codec ID : S_TEXT/UTF8

  143. Codec ID/Info : UTF-8 Plain Text

  144. Duration : 1 h 47 min

  145. Bit rate : 96 b/s

  146. Count of elements : 1464

  147. Stream size : 76.1 KiB (0%)

  148. Language : Greek

  149. Default : No

  150. Forced : No


  151. Text #9

  152. ID : 11

  153. Format : UTF-8

  154. Codec ID : S_TEXT/UTF8

  155. Codec ID/Info : UTF-8 Plain Text

  156. Duration : 1 h 46 min

  157. Bit rate : 61 b/s

  158. Count of elements : 1487

  159. Stream size : 48.0 KiB (0%)

  160. Language : Spanish

  161. Default : No

  162. Forced : No


  163. Text #10

  164. ID : 12

  165. Format : UTF-8

  166. Codec ID : S_TEXT/UTF8

  167. Codec ID/Info : UTF-8 Plain Text

  168. Duration : 1 h 46 min

  169. Bit rate : 59 b/s

  170. Count of elements : 1478

  171. Stream size : 46.1 KiB (0%)

  172. Title : Latin American

  173. Language : Spanish

  174. Default : No

  175. Forced : No


  176. Text #11

  177. ID : 13

  178. Format : UTF-8

  179. Codec ID : S_TEXT/UTF8

  180. Codec ID/Info : UTF-8 Plain Text

  181. Duration : 1 h 46 min

  182. Bit rate : 55 b/s

  183. Count of elements : 1371

  184. Stream size : 43.5 KiB (0%)

  185. Language : Estonian

  186. Default : No

  187. Forced : No


  188. Text #12

  189. ID : 14

  190. Format : UTF-8

  191. Codec ID : S_TEXT/UTF8

  192. Codec ID/Info : UTF-8 Plain Text

  193. Duration : 1 h 46 min

  194. Bit rate : 52 b/s

  195. Count of elements : 1477

  196. Stream size : 41.2 KiB (0%)

  197. Language : Finnish

  198. Default : No

  199. Forced : No


  200. Text #13

  201. ID : 15

  202. Format : UTF-8

  203. Codec ID : S_TEXT/UTF8

  204. Codec ID/Info : UTF-8 Plain Text

  205. Duration : 1 h 46 min

  206. Bit rate : 52 b/s

  207. Count of elements : 1423

  208. Stream size : 40.7 KiB (0%)

  209. Language : French

  210. Default : No

  211. Forced : No


  212. Text #14

  213. ID : 16

  214. Format : UTF-8

  215. Codec ID : S_TEXT/UTF8

  216. Codec ID/Info : UTF-8 Plain Text

  217. Duration : 1 h 46 min

  218. Bit rate : 52 b/s

  219. Count of elements : 1423

  220. Stream size : 40.7 KiB (0%)

  221. Title : Canadian

  222. Language : French

  223. Default : No

  224. Forced : No


  225. Text #15

  226. ID : 17

  227. Format : UTF-8

  228. Codec ID : S_TEXT/UTF8

  229. Codec ID/Info : UTF-8 Plain Text

  230. Duration : 1 h 47 min

  231. Bit rate : 82 b/s

  232. Count of elements : 1488

  233. Stream size : 64.5 KiB (0%)

  234. Language : Hebrew

  235. Default : No

  236. Forced : No


  237. Text #16

  238. ID : 18

  239. Format : UTF-8

  240. Codec ID : S_TEXT/UTF8

  241. Codec ID/Info : UTF-8 Plain Text

  242. Duration : 1 h 47 min

  243. Bit rate : 162 b/s

  244. Count of elements : 1489

  245. Stream size : 128 KiB (0%)

  246. Language : Hindi

  247. Default : No

  248. Forced : No


  249. Text #17

  250. ID : 19

  251. Format : UTF-8

  252. Codec ID : S_TEXT/UTF8

  253. Codec ID/Info : UTF-8 Plain Text

  254. Duration : 1 h 46 min

  255. Bit rate : 59 b/s

  256. Count of elements : 1470

  257. Stream size : 46.6 KiB (0%)

  258. Language : Hungarian

  259. Default : No

  260. Forced : No


  261. Text #18

  262. ID : 20

  263. Format : UTF-8

  264. Codec ID : S_TEXT/UTF8

  265. Codec ID/Info : UTF-8 Plain Text

  266. Duration : 1 h 46 min

  267. Bit rate : 60 b/s

  268. Count of elements : 1475

  269. Stream size : 47.5 KiB (0%)

  270. Language : Indonesian

  271. Default : No

  272. Forced : No


  273. Text #19

  274. ID : 21

  275. Format : UTF-8

  276. Codec ID : S_TEXT/UTF8

  277. Codec ID/Info : UTF-8 Plain Text

  278. Duration : 1 h 46 min

  279. Bit rate : 62 b/s

  280. Count of elements : 1467

  281. Stream size : 48.7 KiB (0%)

  282. Language : Italian

  283. Default : No

  284. Forced : No


  285. Text #20

  286. ID : 22

  287. Format : UTF-8

  288. Codec ID : S_TEXT/UTF8

  289. Codec ID/Info : UTF-8 Plain Text

  290. Duration : 1 h 46 min

  291. Bit rate : 51 b/s

  292. Count of elements : 1425

  293. Stream size : 40.3 KiB (0%)

  294. Language : Japanese

  295. Default : No

  296. Forced : No


  297. Text #21

  298. ID : 23

  299. Format : UTF-8

  300. Codec ID : S_TEXT/UTF8

  301. Codec ID/Info : UTF-8 Plain Text

  302. Duration : 1 h 47 min

  303. Bit rate : 67 b/s

  304. Count of elements : 1485

  305. Stream size : 52.8 KiB (0%)

  306. Language : Korean

  307. Default : No

  308. Forced : No


  309. Text #22

  310. ID : 24

  311. Format : UTF-8

  312. Codec ID : S_TEXT/UTF8

  313. Codec ID/Info : UTF-8 Plain Text

  314. Duration : 1 h 47 min

  315. Bit rate : 59 b/s

  316. Count of elements : 1486

  317. Stream size : 46.7 KiB (0%)

  318. Language : Lithuanian

  319. Default : No

  320. Forced : No


  321. Text #23

  322. ID : 25

  323. Format : UTF-8

  324. Codec ID : S_TEXT/UTF8

  325. Codec ID/Info : UTF-8 Plain Text

  326. Duration : 1 h 47 min

  327. Bit rate : 59 b/s

  328. Count of elements : 1453

  329. Stream size : 47.1 KiB (0%)

  330. Language : Latvian

  331. Default : No

  332. Forced : No


  333. Text #24

  334. ID : 26

  335. Format : UTF-8

  336. Codec ID : S_TEXT/UTF8

  337. Codec ID/Info : UTF-8 Plain Text

  338. Duration : 1 h 46 min

  339. Bit rate : 59 b/s

  340. Count of elements : 1473

  341. Stream size : 46.2 KiB (0%)

  342. Language : Malay

  343. Default : No

  344. Forced : No


  345. Text #25

  346. ID : 27

  347. Format : UTF-8

  348. Codec ID : S_TEXT/UTF8

  349. Codec ID/Info : UTF-8 Plain Text

  350. Duration : 1 h 46 min

  351. Bit rate : 49 b/s

  352. Count of elements : 1120

  353. Stream size : 38.8 KiB (0%)

  354. Language : Dutch

  355. Default : No

  356. Forced : No


  357. Text #26

  358. ID : 28

  359. Format : UTF-8

  360. Codec ID : S_TEXT/UTF8

  361. Codec ID/Info : UTF-8 Plain Text

  362. Duration : 1 h 46 min

  363. Bit rate : 52 b/s

  364. Count of elements : 1242

  365. Stream size : 40.9 KiB (0%)

  366. Language : Norwegian

  367. Default : No

  368. Forced : No


  369. Text #27

  370. ID : 29

  371. Format : UTF-8

  372. Codec ID : S_TEXT/UTF8

  373. Codec ID/Info : UTF-8 Plain Text

  374. Duration : 1 h 46 min

  375. Bit rate : 54 b/s

  376. Count of elements : 1393

  377. Stream size : 42.8 KiB (0%)

  378. Language : Polish

  379. Default : No

  380. Forced : No


  381. Text #28

  382. ID : 30

  383. Format : UTF-8

  384. Codec ID : S_TEXT/UTF8

  385. Codec ID/Info : UTF-8 Plain Text

  386. Duration : 1 h 46 min

  387. Bit rate : 63 b/s

  388. Count of elements : 1471

  389. Stream size : 49.8 KiB (0%)

  390. Language : Portuguese

  391. Default : No

  392. Forced : No


  393. Text #29

  394. ID : 31

  395. Format : UTF-8

  396. Codec ID : S_TEXT/UTF8

  397. Codec ID/Info : UTF-8 Plain Text

  398. Duration : 1 h 46 min

  399. Bit rate : 55 b/s

  400. Count of elements : 1442

  401. Stream size : 43.3 KiB (0%)

  402. Title : Brazilian

  403. Language : Portuguese

  404. Default : No

  405. Forced : No


  406. Text #30

  407. ID : 32

  408. Format : UTF-8

  409. Codec ID : S_TEXT/UTF8

  410. Codec ID/Info : UTF-8 Plain Text

  411. Duration : 1 h 47 min

  412. Bit rate : 90 b/s

  413. Count of elements : 1489

  414. Stream size : 70.8 KiB (0%)

  415. Language : Russian

  416. Default : No

  417. Forced : No


  418. Text #31

  419. ID : 33

  420. Format : UTF-8

  421. Codec ID : S_TEXT/UTF8

  422. Codec ID/Info : UTF-8 Plain Text

  423. Duration : 1 h 46 min

  424. Bit rate : 56 b/s

  425. Count of elements : 1473

  426. Stream size : 44.0 KiB (0%)

  427. Language : Slovak

  428. Default : No

  429. Forced : No


  430. Text #32

  431. ID : 34

  432. Format : UTF-8

  433. Codec ID : S_TEXT/UTF8

  434. Codec ID/Info : UTF-8 Plain Text

  435. Duration : 1 h 46 min

  436. Bit rate : 48 b/s

  437. Count of elements : 1431

  438. Stream size : 38.2 KiB (0%)

  439. Language : Slovenian

  440. Default : No

  441. Forced : No


  442. Text #33

  443. ID : 35

  444. Format : UTF-8

  445. Codec ID : S_TEXT/UTF8

  446. Codec ID/Info : UTF-8 Plain Text

  447. Duration : 1 h 46 min

  448. Bit rate : 61 b/s

  449. Count of elements : 1326

  450. Stream size : 47.9 KiB (0%)

  451. Language : Swedish

  452. Default : No

  453. Forced : No


  454. Text #34

  455. ID : 36

  456. Format : UTF-8

  457. Codec ID : S_TEXT/UTF8

  458. Codec ID/Info : UTF-8 Plain Text

  459. Duration : 1 h 47 min

  460. Bit rate : 201 b/s

  461. Count of elements : 1487

  462. Stream size : 159 KiB (0%)

  463. Language : Tamil

  464. Default : No

  465. Forced : No


  466. Text #35

  467. ID : 37

  468. Format : UTF-8

  469. Codec ID : S_TEXT/UTF8

  470. Codec ID/Info : UTF-8 Plain Text

  471. Duration : 1 h 47 min

  472. Bit rate : 178 b/s

  473. Count of elements : 1487

  474. Stream size : 140 KiB (0%)

  475. Language : Telugu

  476. Default : No

  477. Forced : No


  478. Text #36

  479. ID : 38

  480. Format : UTF-8

  481. Codec ID : S_TEXT/UTF8

  482. Codec ID/Info : UTF-8 Plain Text

  483. Duration : 1 h 47 min

  484. Bit rate : 126 b/s

  485. Count of elements : 1487

  486. Stream size : 99.4 KiB (0%)

  487. Language : Thai

  488. Default : No

  489. Forced : No


  490. Text #37

  491. ID : 39

  492. Format : UTF-8

  493. Codec ID : S_TEXT/UTF8

  494. Codec ID/Info : UTF-8 Plain Text

  495. Duration : 1 h 46 min

  496. Bit rate : 59 b/s

  497. Count of elements : 1464

  498. Stream size : 46.2 KiB (0%)

  499. Language : Turkish

  500. Default : No

  501. Forced : No


  502. Text #38

  503. ID : 40

  504. Format : UTF-8

  505. Codec ID : S_TEXT/UTF8

  506. Codec ID/Info : UTF-8 Plain Text

  507. Duration : 1 h 47 min

  508. Bit rate : 96 b/s

  509. Count of elements : 1488

  510. Stream size : 75.7 KiB (0%)

  511. Language : Ukrainian

  512. Default : No

  513. Forced : No


  514. Text #39

  515. ID : 41

  516. Format : UTF-8

  517. Codec ID : S_TEXT/UTF8

  518. Codec ID/Info : UTF-8 Plain Text

  519. Duration : 1 h 46 min

  520. Bit rate : 79 b/s

  521. Count of elements : 1480

  522. Stream size : 62.0 KiB (0%)

  523. Language : Vietnamese

  524. Default : No

  525. Forced : No


  526. Text #40

  527. ID : 42

  528. Format : UTF-8

  529. Codec ID : S_TEXT/UTF8

  530. Codec ID/Info : UTF-8 Plain Text

  531. Duration : 1 h 47 min

  532. Bit rate : 52 b/s

  533. Count of elements : 1489

  534. Stream size : 41.5 KiB (0%)

  535. Title : Traditional

  536. Default : No

  537. Forced : No


  538. Text #41

  539. ID : 43

  540. Format : UTF-8

  541. Codec ID : S_TEXT/UTF8

  542. Codec ID/Info : UTF-8 Plain Text

  543. Duration : 1 h 47 min

  544. Bit rate : 55 b/s

  545. Count of elements : 1487

  546. Stream size : 43.3 KiB (0%)

  547. Title : zh-Hans

  548. Language : Chinese

  549. Default : No

  550. Forced : No


  551. Text #42

  552. ID : 44

  553. Format : UTF-8

  554. Codec ID : S_TEXT/UTF8

  555. Codec ID/Info : UTF-8 Plain Text

  556. Duration : 1 h 47 min

  557. Bit rate : 56 b/s

  558. Count of elements : 1489

  559. Stream size : 44.1 KiB (0%)

  560. Title : zh-Hant

  561. Language : Chinese

  562. Default : No

  563. Forced : No

复制代码

  


上传的附件:
BT9527电影天堂 1、BT9527电影天堂提供的BT文件均来源于互联网抓取,只供网友学习交流、技术提升使用。
2、我们遵守BitTorrent点对点协议原则,任何版权问题请联系原资源发布商,我们不处理任何版权纠纷,谢谢!如有争议请联系邮箱:BT9527#hotmail.com(#换成@)
3、如果您发现某页面或地址有错误,请联系站长邮箱BT9527#hotmail.com(#换成@),我们会尽快处理。您的热心是对BT9527电影天堂最大的支持。
4、本站建议去正规影院观看电影以支持电影行业发展。
最新回复 (0)

你可以在 登录 or 注册 后,对此帖发表评论!

返回