蜘蛛头[中文字幕].Spiderhead.2022.720p.NF.WEBRip.DDP5.1.Atmos.x264-SMURF 1.34GB

版主小s 5月前 334

◎标 题 蜘蛛头

◎译 名 蜘蛛头监狱(港 / 台) / 逃离蜘蛛头 / 地球上最后的孩子:祝你末日快乐 / Escape From Spiderhead

◎片 名 Spiderhead

◎年 代 2022

◎产 地 美国

◎类 别 科幻 / 惊悚 / 犯罪

◎语 言 英语

◎上映日期 2022-06-17(美国网络)

◎IMDb链接 https://www.imdb.com/title/tt9783600/

◎豆瓣链接 https://movie.douban.com/subject/30451909/

◎片 长 106分钟

◎导 演 约瑟夫·科辛斯基 Joseph Kosinski

◎编 剧 瑞特·里斯 Rhett Reese

保罗·韦尼克 Paul Wernick

◎演 员 克里斯·海姆斯沃斯 Chris Hemsworth

迈尔斯·特勒 Miles Teller

朱尼·斯莫利特 Jurnee Smollett

内森·琼斯 Nathan Jones

泰丝·哈乌布里奇 Tess Haubrich

查尔斯·帕内尔 Charles Parnell

碧比·贝登科特 BeBe Bettencourt

丹尼尔·博克 Daniel Booko

安琪·米利肯 Angie Milliken

乔伊·维埃拉 Joey Vieira

克劳迪奥·米兰达 Claudio Miranda

◎简 介

在一所由才华横溢、富有远见的史蒂夫·艾纳斯蒂(克里斯·海姆斯沃斯饰)管理的先进监狱里,囚犯们佩戴着一种通过外科手术连接的装置,通过该装置注射一定剂量改变心智的药物,以换取减刑。没有酒吧,没有牢房,也没有橙色囚衣。在“蜘蛛头”中,被监禁的志愿者可以自由地做自己。直到他们最终失去自我。有时候,他们还会变成更好的自己。需要放松?有一种药物可以治疗。不知所措?也有一种药物可以治疗。但当两个实验对象杰夫(迈尔斯·特勒饰)和丽姿(朱尼·斯莫利特饰)建立情谊后,他们的救赎之路跌宕起伏,因为艾纳斯蒂的实验开始完全突破自由意志的极限。

《蜘蛛头》改编自乔治·桑德斯的《纽约客》短篇小说,由约瑟夫·科辛斯基(《创:战纪 TRON》、《壮志凌云:独行侠》)执导,瑞特·里斯和保罗·韦尼克(《死侍》、《丧尸乐园》)担任编剧,是一部风格迥异、黑暗搞笑的心理惊悚片。

  1. Video

  2. ID : 1

  3. Format : AVC

  4. Format/Info : Advanced Video Codec

  5. Format profile : Main@L3.1

  6. Format settings : CABAC / 3 Ref Frames

  7. Format settings, CABAC : Yes

  8. Format settings, Reference frames : 3 frames

  9. Codec ID : V_MPEG4/ISO/AVC

  10. Duration : 1 h 47 min

  11. Bit rate mode : Variable

  12. Bit rate : 1 019 kb/s

  13. Nominal bit rate : 1 294 kb/s

  14. Maximum bit rate : 2 310 kb/s

  15. Width : 1 280 pixels

  16. Height : 720 pixels

  17. Display aspect ratio : 16:9

  18. Frame rate mode : Constant

  19. Frame rate : 24.000 FPS

  20. Color space : YUV

  21. Chroma subsampling : 4:2:0

  22. Bit depth : 8 bits

  23. Scan type : Progressive

  24. Bits/(Pixel*Frame) : 0.046

  25. Stream size : 782 MiB (57%)

  26. Writing library : x264 core 148 r2727 7d026e8

  27. Encoding settings : cabac=1 / ref=3 / deblock=1:0:0 / analyse=0x1:0x111 / me=umh / subme=10 / psy=1 / psy_rd=1.00:0.00 / mixed_ref=1 / me_range=24 / chroma_me=1 / trellis=2 / 8x8dct=0 / cqm=0 / deadzone=21,11 / fast_pskip=1 / chroma_qp_offset=-2 / threads=8 / lookahead_threads=1 / sliced_threads=0 / nr=0 / decimate=1 / interlaced=0 / NTMzNTQ= / bluray_compat=0 / stitchable=1 / constrained_intra=0 / bframes=2 / b_pyramid=0 / b_adapt=2 / b_bias=0 / direct=3 / weightb=1 / open_gop=0 / weightp=2 / keyint=250 / keyint_min=24 / scenecut=0 / intra_refresh=0 / rc_lookahead=48 / rc=2pass / mbtree=1 / bitrate=1294 / ratetol=1.0 / qcomp=0.50 / qpmin=6 / qpmax=51 / qpstep=4 / cplxblur=20.0 / qblur=0.5 / vbv_maxrate=2310 / vbv_bufsize=3080 / nal_hrd=vbr / filler=0 / NTMzNTQ=LmsMAP37EqsCpk / ip_ratio=1.40 / aq=1:1.00

  28. Default : Yes

  29. Forced : No


  30. Audio

  31. ID : 2

  32. Format : E-AC-3 JOC

  33. Format/Info : Enhanced AC-3 with Joint Object Coding

  34. Commercial name : Dolby Digital Plus with Dolby Atmos

  35. Codec ID : A_EAC3

  36. Duration : 1 h 47 min

  37. Bit rate mode : Constant

  38. Bit rate : 768 kb/s

  39. Channel(s) : 6 channels

  40. Channel layout : L R C LFE Ls Rs

  41. Sampling rate : 48.0 kHz

  42. Frame rate : 31.250 FPS (1536 SPF)

  43. Compression mode : Lossy

  44. Stream size : 589 MiB (43%)

  45. Language : English

  46. Service kind : Complete Main

  47. Default : Yes

  48. Forced : No

  49. Complexity index : 16

  50. Number of dynamic objects : 15

  51. Bed channel count : 1 channel

  52. Bed channel configuration : LFE


  53. Text #1

  54. ID : 3

  55. Format : UTF-8

  56. Codec ID : S_TEXT/UTF8

  57. Codec ID/Info : UTF-8 Plain Text

  58. Duration : 1 h 37 min

  59. Bit rate : 58 b/s

  60. Count of elements : 1291

  61. Stream size : 41.5 KiB (0%)

  62. Language : English

  63. Default : No

  64. Forced : No


  65. Text #2

  66. ID : 4

  67. Format : UTF-8

  68. Codec ID : S_TEXT/UTF8

  69. Codec ID/Info : UTF-8 Plain Text

  70. Duration : 1 h 41 min

  71. Bit rate : 69 b/s

  72. Count of elements : 1649

  73. Stream size : 52.2 KiB (0%)

  74. Title : SDH

  75. Language : English

  76. Default : No

  77. Forced : No


  78. Text #3

  79. ID : 5

  80. Format : UTF-8

  81. Codec ID : S_TEXT/UTF8

  82. Codec ID/Info : UTF-8 Plain Text

  83. Duration : 1 h 45 min

  84. Bit rate : 90 b/s

  85. Count of elements : 1282

  86. Stream size : 69.9 KiB (0%)

  87. Language : Arabic

  88. Default : No

  89. Forced : No


  90. Text #4

  91. ID : 6

  92. Format : UTF-8

  93. Codec ID : S_TEXT/UTF8

  94. Codec ID/Info : UTF-8 Plain Text

  95. Duration : 1 h 45 min

  96. Bit rate : 46 b/s

  97. Count of elements : 1254

  98. Stream size : 35.6 KiB (0%)

  99. Language : Czech

  100. Default : No

  101. Forced : No


  102. Text #5

  103. ID : 7

  104. Format : UTF-8

  105. Codec ID : S_TEXT/UTF8

  106. Codec ID/Info : UTF-8 Plain Text

  107. Duration : 1 h 45 min

  108. Bit rate : 46 b/s

  109. Count of elements : 1195

  110. Stream size : 35.5 KiB (0%)

  111. Language : Danish

  112. Default : No

  113. Forced : No


  114. Text #6

  115. ID : 8

  116. Format : UTF-8

  117. Codec ID : S_TEXT/UTF8

  118. Codec ID/Info : UTF-8 Plain Text

  119. Duration : 1 h 45 min

  120. Bit rate : 48 b/s

  121. Count of elements : 1268

  122. Stream size : 37.2 KiB (0%)

  123. Language : German

  124. Default : No

  125. Forced : No


  126. Text #7

  127. ID : 9

  128. Format : UTF-8

  129. Codec ID : S_TEXT/UTF8

  130. Codec ID/Info : UTF-8 Plain Text

  131. Duration : 1 h 45 min

  132. Bit rate : 82 b/s

  133. Count of elements : 1276

  134. Stream size : 63.7 KiB (0%)

  135. Language : Greek

  136. Default : No

  137. Forced : No


  138. Text #8

  139. ID : 10

  140. Format : UTF-8

  141. Codec ID : S_TEXT/UTF8

  142. Codec ID/Info : UTF-8 Plain Text

  143. Duration : 1 h 37 min

  144. Bit rate : 57 b/s

  145. Count of elements : 1271

  146. Stream size : 41.4 KiB (0%)

  147. Title : Latin American

  148. Language : Spanish

  149. Default : No

  150. Forced : No


  151. Text #9

  152. ID : 11

  153. Format : UTF-8

  154. Codec ID : S_TEXT/UTF8

  155. Codec ID/Info : UTF-8 Plain Text

  156. Duration : 1 h 45 min

  157. Bit rate : 48 b/s

  158. Count of elements : 1292

  159. Stream size : 37.1 KiB (0%)

  160. Title : Latin American

  161. Language : Spanish

  162. Default : No

  163. Forced : No


  164. Text #10

  165. ID : 12

  166. Format : UTF-8

  167. Codec ID : S_TEXT/UTF8

  168. Codec ID/Info : UTF-8 Plain Text

  169. Duration : 1 h 37 min

  170. Bit rate : 60 b/s

  171. Count of elements : 1332

  172. Stream size : 43.6 KiB (0%)

  173. Title : Latin American (SDH)

  174. Language : Spanish

  175. Default : No

  176. Forced : No


  177. Text #11

  178. ID : 13

  179. Format : UTF-8

  180. Codec ID : S_TEXT/UTF8

  181. Codec ID/Info : UTF-8 Plain Text

  182. Duration : 1 h 45 min

  183. Bit rate : 47 b/s

  184. Count of elements : 1287

  185. Stream size : 36.7 KiB (0%)

  186. Language : Spanish

  187. Default : No

  188. Forced : No


  189. Text #12

  190. ID : 14

  191. Format : UTF-8

  192. Codec ID : S_TEXT/UTF8

  193. Codec ID/Info : UTF-8 Plain Text

  194. Duration : 1 h 45 min

  195. Bit rate : 47 b/s

  196. Count of elements : 1227

  197. Stream size : 37.0 KiB (0%)

  198. Language : Basque

  199. Default : No

  200. Forced : No


  201. Text #13

  202. ID : 15

  203. Format : UTF-8

  204. Codec ID : S_TEXT/UTF8

  205. Codec ID/Info : UTF-8 Plain Text

  206. Duration : 1 h 45 min

  207. Bit rate : 44 b/s

  208. Count of elements : 1085

  209. Stream size : 34.1 KiB (0%)

  210. Language : Finnish

  211. Default : No

  212. Forced : No


  213. Text #14

  214. ID : 16

  215. Format : UTF-8

  216. Codec ID : S_TEXT/UTF8

  217. Codec ID/Info : UTF-8 Plain Text

  218. Duration : 1 h 45 min

  219. Bit rate : 53 b/s

  220. Count of elements : 1260

  221. Stream size : 41.2 KiB (0%)

  222. Language : fil

  223. Default : No

  224. Forced : No


  225. Text #15

  226. ID : 17

  227. Format : UTF-8

  228. Codec ID : S_TEXT/UTF8

  229. Codec ID/Info : UTF-8 Plain Text

  230. Duration : 1 h 45 min

  231. Bit rate : 47 b/s

  232. Count of elements : 1223

  233. Stream size : 36.7 KiB (0%)

  234. Language : French

  235. Default : No

  236. Forced : No


  237. Text #16

  238. ID : 18

  239. Format : UTF-8

  240. Codec ID : S_TEXT/UTF8

  241. Codec ID/Info : UTF-8 Plain Text

  242. Duration : 1 h 45 min

  243. Bit rate : 42 b/s

  244. Count of elements : 1264

  245. Stream size : 33.0 KiB (0%)

  246. Language : Galician

  247. Default : No

  248. Forced : No


  249. Text #17

  250. ID : 19

  251. Format : UTF-8

  252. Codec ID : S_TEXT/UTF8

  253. Codec ID/Info : UTF-8 Plain Text

  254. Duration : 1 h 45 min

  255. Bit rate : 80 b/s

  256. Count of elements : 1284

  257. Stream size : 61.9 KiB (0%)

  258. Language : Hebrew

  259. Default : No

  260. Forced : No


  261. Text #18

  262. ID : 20

  263. Format : UTF-8

  264. Codec ID : S_TEXT/UTF8

  265. Codec ID/Info : UTF-8 Plain Text

  266. Duration : 1 h 45 min

  267. Bit rate : 46 b/s

  268. Count of elements : 1218

  269. Stream size : 35.9 KiB (0%)

  270. Language : Croatian

  271. Default : No

  272. Forced : No


  273. Text #19

  274. ID : 21

  275. Format : UTF-8

  276. Codec ID : S_TEXT/UTF8

  277. Codec ID/Info : UTF-8 Plain Text

  278. Duration : 1 h 45 min

  279. Bit rate : 47 b/s

  280. Count of elements : 1269

  281. Stream size : 37.0 KiB (0%)

  282. Language : Hungarian

  283. Default : No

  284. Forced : No


  285. Text #20

  286. ID : 22

  287. Format : UTF-8

  288. Codec ID : S_TEXT/UTF8

  289. Codec ID/Info : UTF-8 Plain Text

  290. Duration : 1 h 45 min

  291. Bit rate : 49 b/s

  292. Count of elements : 1275

  293. Stream size : 37.9 KiB (0%)

  294. Language : Indonesian

  295. Default : No

  296. Forced : No


  297. Text #21

  298. ID : 23

  299. Format : UTF-8

  300. Codec ID : S_TEXT/UTF8

  301. Codec ID/Info : UTF-8 Plain Text

  302. Duration : 1 h 45 min

  303. Bit rate : 48 b/s

  304. Count of elements : 1230

  305. Stream size : 37.4 KiB (0%)

  306. Language : Italian

  307. Default : No

  308. Forced : No


  309. Text #22

  310. ID : 24

  311. Format : UTF-8

  312. Codec ID : S_TEXT/UTF8

  313. Codec ID/Info : UTF-8 Plain Text

  314. Duration : 1 h 45 min

  315. Bit rate : 44 b/s

  316. Count of elements : 1212

  317. Stream size : 34.6 KiB (0%)

  318. Language : Japanese

  319. Default : No

  320. Forced : No


  321. Text #23

  322. ID : 25

  323. Format : UTF-8

  324. Codec ID : S_TEXT/UTF8

  325. Codec ID/Info : UTF-8 Plain Text

  326. Duration : 1 h 45 min

  327. Bit rate : 57 b/s

  328. Count of elements : 1321

  329. Stream size : 44.3 KiB (0%)

  330. Language : Korean

  331. Default : No

  332. Forced : No


  333. Text #24

  334. ID : 26

  335. Format : UTF-8

  336. Codec ID : S_TEXT/UTF8

  337. Codec ID/Info : UTF-8 Plain Text

  338. Duration : 1 h 45 min

  339. Bit rate : 45 b/s

  340. Count of elements : 1264

  341. Stream size : 35.2 KiB (0%)

  342. Language : Malay

  343. Default : No

  344. Forced : No


  345. Text #25

  346. ID : 27

  347. Format : UTF-8

  348. Codec ID : S_TEXT/UTF8

  349. Codec ID/Info : UTF-8 Plain Text

  350. Duration : 1 h 45 min

  351. Bit rate : 47 b/s

  352. Count of elements : 1189

  353. Stream size : 36.3 KiB (0%)

  354. Language : Norwegian Bokmal

  355. Default : No

  356. Forced : No


  357. Text #26

  358. ID : 28

  359. Format : UTF-8

  360. Codec ID : S_TEXT/UTF8

  361. Codec ID/Info : UTF-8 Plain Text

  362. Duration : 1 h 45 min

  363. Bit rate : 42 b/s

  364. Count of elements : 1108

  365. Stream size : 33.1 KiB (0%)

  366. Language : Dutch

  367. Default : No

  368. Forced : No


  369. Text #27

  370. ID : 29

  371. Format : UTF-8

  372. Codec ID : S_TEXT/UTF8

  373. Codec ID/Info : UTF-8 Plain Text

  374. Duration : 1 h 45 min

  375. Bit rate : 47 b/s

  376. Count of elements : 1244

  377. Stream size : 36.8 KiB (0%)

  378. Language : Polish

  379. Default : No

  380. Forced : No


  381. Text #28

  382. ID : 30

  383. Format : UTF-8

  384. Codec ID : S_TEXT/UTF8

  385. Codec ID/Info : UTF-8 Plain Text

  386. Duration : 1 h 37 min

  387. Bit rate : 59 b/s

  388. Count of elements : 1293

  389. Stream size : 42.4 KiB (0%)

  390. Title : Brazilian

  391. Language : Portuguese

  392. Default : No

  393. Forced : No


  394. Text #29

  395. ID : 31

  396. Format : UTF-8

  397. Codec ID : S_TEXT/UTF8

  398. Codec ID/Info : UTF-8 Plain Text

  399. Duration : 1 h 45 min

  400. Bit rate : 45 b/s

  401. Count of elements : 1247

  402. Stream size : 35.4 KiB (0%)

  403. Title : Brazilian

  404. Language : Portuguese

  405. Default : No

  406. Forced : No


  407. Text #30

  408. ID : 32

  409. Format : UTF-8

  410. Codec ID : S_TEXT/UTF8

  411. Codec ID/Info : UTF-8 Plain Text

  412. Duration : 1 h 41 min

  413. Bit rate : 66 b/s

  414. Count of elements : 1561

  415. Stream size : 49.7 KiB (0%)

  416. Title : Brazilian (SDH)

  417. Language : Portuguese

  418. Default : No

  419. Forced : No


  420. Text #31

  421. ID : 33

  422. Format : UTF-8

  423. Codec ID : S_TEXT/UTF8

  424. Codec ID/Info : UTF-8 Plain Text

  425. Duration : 1 h 45 min

  426. Bit rate : 49 b/s

  427. Count of elements : 1246

  428. Stream size : 38.4 KiB (0%)

  429. Language : Portuguese

  430. Default : No

  431. Forced : No


  432. Text #32

  433. ID : 34

  434. Format : UTF-8

  435. Codec ID : S_TEXT/UTF8

  436. Codec ID/Info : UTF-8 Plain Text

  437. Duration : 1 h 45 min

  438. Bit rate : 55 b/s

  439. Count of elements : 1259

  440. Stream size : 43.2 KiB (0%)

  441. Language : Romanian

  442. Default : No

  443. Forced : No


  444. Text #33

  445. ID : 35

  446. Format : UTF-8

  447. Codec ID : S_TEXT/UTF8

  448. Codec ID/Info : UTF-8 Plain Text

  449. Duration : 1 h 45 min

  450. Bit rate : 78 b/s

  451. Count of elements : 1239

  452. Stream size : 60.2 KiB (0%)

  453. Language : Russian

  454. Default : No

  455. Forced : No


  456. Text #34

  457. ID : 36

  458. Format : UTF-8

  459. Codec ID : S_TEXT/UTF8

  460. Codec ID/Info : UTF-8 Plain Text

  461. Duration : 1 h 45 min

  462. Bit rate : 46 b/s

  463. Count of elements : 1091

  464. Stream size : 35.7 KiB (0%)

  465. Language : Swedish

  466. Default : No

  467. Forced : No


  468. Text #35

  469. ID : 37

  470. Format : UTF-8

  471. Codec ID : S_TEXT/UTF8

  472. Codec ID/Info : UTF-8 Plain Text

  473. Duration : 1 h 45 min

  474. Bit rate : 130 b/s

  475. Count of elements : 1292

  476. Stream size : 101 KiB (0%)

  477. Language : Thai

  478. Default : No

  479. Forced : No


  480. Text #36

  481. ID : 38

  482. Format : UTF-8

  483. Codec ID : S_TEXT/UTF8

  484. Codec ID/Info : UTF-8 Plain Text

  485. Duration : 1 h 45 min

  486. Bit rate : 50 b/s

  487. Count of elements : 1280

  488. Stream size : 39.3 KiB (0%)

  489. Language : Turkish

  490. Default : No

  491. Forced : No


  492. Text #37

  493. ID : 39

  494. Format : UTF-8

  495. Codec ID : S_TEXT/UTF8

  496. Codec ID/Info : UTF-8 Plain Text

  497. Duration : 1 h 45 min

  498. Bit rate : 84 b/s

  499. Count of elements : 1268

  500. Stream size : 65.3 KiB (0%)

  501. Language : Ukrainian

  502. Default : No

  503. Forced : No


  504. Text #38

  505. ID : 40

  506. Format : UTF-8

  507. Codec ID : S_TEXT/UTF8

  508. Codec ID/Info : UTF-8 Plain Text

  509. Duration : 1 h 45 min

  510. Bit rate : 68 b/s

  511. Count of elements : 1283

  512. Stream size : 52.8 KiB (0%)

  513. Language : Vietnamese

  514. Default : No

  515. Forced : No


  516. Text #39

  517. ID : 41

  518. Format : UTF-8

  519. Codec ID : S_TEXT/UTF8

  520. Codec ID/Info : UTF-8 Plain Text

  521. Duration : 1 h 45 min

  522. Bit rate : 58 b/s

  523. Count of elements : 1286

  524. Stream size : 44.9 KiB (0%)

  525. Title : Simplified

  526. Language : Chinese

  527. Default : No

  528. Forced : No


  529. Text #40

  530. ID : 42

  531. Format : UTF-8

  532. Codec ID : S_TEXT/UTF8

  533. Codec ID/Info : UTF-8 Plain Text

  534. Duration : 1 h 45 min

  535. Bit rate : 45 b/s

  536. Count of elements : 1295

  537. Stream size : 35.1 KiB (0%)

  538. Title : Traditional

  539. Language : Chinese

  540. Default : No

  541. Forced : No


  542. Menu

  543. 01:39:58.000 : en:Credits

复制代码

  


磁力链:
  • magnet:?xt=urn:btih:99476491C9A25A778C402A126CF71067A783AFA0
上传的附件:
BT9527电影天堂 1、BT9527电影天堂提供的BT文件均来源于互联网抓取,只供网友学习交流、技术提升使用。
2、我们遵守BitTorrent点对点协议原则,任何版权问题请联系原资源发布商,我们不处理任何版权纠纷,谢谢!如有争议请联系邮箱:BT9527#hotmail.com(#换成@)
3、如果您发现某页面或地址有错误,请联系站长邮箱BT9527#hotmail.com(#换成@),我们会尽快处理。您的热心是对BT9527电影天堂最大的支持。
4、本站建议去正规影院观看电影以支持电影行业发展。
最新回复 (0)

你可以在 登录 or 注册 后,对此帖发表评论!

返回
发新帖