曾经安静的男人[中文字幕].He.Was.a.Quiet.Man.2007.1080p.BluRay.DD5.1.x265-10bit-ENTHD 6.40GB

版主小s 5月前 199

✔资源类型:暂未分类   ✔电影年份:2007   ✔电影地区:欧美   ✔电影分类:剧情

◎译  名 曾经安静的男人 / 曾经安静的人 / 安静的男人
◎片  名 He Was a Quiet Man
◎年  代 2007
◎产  地 美国
◎类  别 剧情 / 爱情 / 惊悚
◎语  言 英语
◎上映日期 2007-11-23
◎IMDb链接 https://www.imdb.com/title/tt0760311/
◎豆瓣评分 7.5/10 (4704人评价)
◎豆瓣链接 https://movie.douban.com/subject/1947056/
◎片  长 95 分钟
◎导  演 弗兰克·凯佩罗 Frank A. Cappello (id:1280030)
◎编  剧 弗兰克·凯佩罗 Frank A. Cappello (id:1280030)
◎演  员 克里斯蒂安·史莱特 Christian Slater (id:1022597)
       威廉姆·H·梅西 William H. Macy (id:1031892)
       安津罗森 Anzu Lawson (id:1107800)
       伊丽莎·库斯伯特 Elisha Cuthbert (id:1003486)
       贾米森·琼斯 Jamison Jones (id:1345792)
       科特妮·巴拉克 Courtney Balaker (id:1398101)
       玛姬理查德 Maggie Wagner (id:1163194)
       弗朗姬索恩 Frankie Thorn (id:1154189)
       莎莎克诺夫 Sascha Knopf (id:1110035)
       鲁道夫曼托兹 Randolph Mantooth (id:1049816)
       约翰·古拉格 John Gulager (id:1036919)
       迈克尔·德路易斯 Michael DeLuise (id:1022746)
       杰森·特罗斯特 Jason Trost (id:1426153)
       Michael Leahy Michael Leahy (id:1005891)
       弗兰克·凯佩罗 Frank A. Cappello (id:1280030)
       杰夫·比尔 Jeff Beal (id:1019286)
       布兰登·特罗斯特 Brandon Trost (id:1050599)
       柯克·M·毛利 Kirk M. Morri (id:1292536)
       迈克尔·戴维斯 Michael Davis (id:1200120)
       加里·J·滕尼克利夫 Gary J. Tunnicliffe (id:1032936)
       亚莉莎·弗雷德里克斯 Alisa Fredericks (id:1209086)

◎简  介
  鲍勃(克里斯汀·史莱特 Christian Slater 饰)是一名常被忽视的公司小职员,独自生活领着微薄的工资,他讨厌公司里的每个人,但惟独对漂亮女同事维纳沙(伊丽莎·库斯伯特 Elisha Cuthbert 饰)情有独钟。他每天幻想着怎样射杀这些冷漠的同事和上司,但突然有一天清晨另一名同事先于他一步做了这些事情,不幸的是维纳沙也被误伤,为了救她鲍勃挺身而出,但是她还是永远不能站立了。一夜之间鲍勃变身了拯救公司的英雄,地位得到提升,但他所想的只是拯救落寞的维纳沙,可事情总不像表面那样,鲍勃的生活变好了但他内心还有许多潜藏的不安,维纳沙表面清纯其实内心沧桑。最终,鲍勃走上了另一条不归路。
  1. ##### MediaInfo ######
  2. General
  3. Unique ID                                : 77252074309356622611658012446344286076 (0x3A1E3554516D9F9A949AFFB7428F0F7C)
  4. Complete name                            : He.Was.a.Quiet.Man.2007.1080p.BluRay.DD5.1.x265-10bit-ENTHD.mkv
  5. Format                                   : Matroska
  6. Format version                           : Version 4
  7. File size                                : 6.40 GiB
  8. Duration                                 : 1 h 35 min
  9. Overall bit rate                         : 9 603 kb/s
  10. Movie name                               : He Was a Quiet Man 2007 1080p BluRay DD5.1 x265-10bit-HDS
  11. Encoded date                             : UTC 2022-06-16 14:24:19
  12. Writing application                      : mkvmerge v38.0.0 ('The Silent Type') 64-bit
  13. Writing library                          : libebml v1.3.9 + libmatroska v1.5.2
  14. Video
  15. ID                                       : 1
  16. Format                                   : HEVC
  17. Format/Info                              : High Efficiency Video Coding
  18. Format profile                           : Main 10@L5.1@High
  19. Codec ID                                 : V_MPEGH/ISO/HEVC
  20. Duration                                 : 1 h 35 min
  21. Bit rate                                 : 8 934 kb/s
  22. Width                                    : 1 920 pixels
  23. Height                                   : 1 080 pixels
  24. Display aspect ratio                     : 16:9
  25. Frame rate mode                          : Constant
  26. Frame rate                               : 23.976 (24000/1001/53354) FPS
  27. Color space                              : YUV
  28. Chroma subsampling                       : 4:2:0
  29. Bit depth                                : 10 bits
  30. Bits/(Pixel*Frame)                       : 0.180
  31. Stream size                              : 5.95 GiB (93%)
  32. Title                                    : billpotter@HDSky
  33. Writing library                          : x265 - H.265/HEVC codec
  34. Default                                  : Yes
  35. Forced                                   : No
  36. Audio
  37. ID                                       : 2
  38. Format                                   : AC-3
  39. Format/Info                              : Audio Coding 3
  40. Commercial name                          : Dolby Digital
  41. Codec ID                                 : A_AC3
  42. Duration                                 : 1 h 35 min
  43. Bit rate mode                            : Constant
  44. Bit rate                                 : 640 kb/s
  45. Channel(s)                               : 6 channels
  46. Channel layout                           : L R C LFE Ls Rs
  47. Sampling rate                            : 48.0 kHz
  48. Frame rate                               : 31.250 FPS (1536 SPF)
  49. Compression mode                         : Lossy
  50. Stream size                              : 437 MiB (7%)
  51. Title                                    : English
  52. Language                                 : English
  53. Service kind                             : Complete Main
  54. Default                                  : Yes
  55. Forced                                   : No
  56. Text #1
  57. ID                                       : 3
  58. Format                                   : PGS
  59. Muxing mode                              : zlib
  60. Codec ID                                 : S_HDMV/PGS
  61. Codec ID/Info                            : Picture based subtitle format used on BDs/HD-DVDs
  62. Duration                                 : 1 h 32 min
  63. Bit rate                                 : 28.8 kb/s
  64. Count of elements                        : 1730
  65. Stream size                              : 19.1 MiB (0%)
  66. Title                                    : CHS
  67. Language                                 : Chinese
  68. Default                                  : Yes
  69. Forced                                   : No
  70. Text #2
  71. ID                                       : 4
  72. Format                                   : PGS
  73. Muxing mode                              : zlib
  74. Codec ID                                 : S_HDMV/PGS
  75. Codec ID/Info                            : Picture based subtitle format used on BDs/HD-DVDs
  76. Duration                                 : 1 h 32 min
  77. Bit rate                                 : 29.5 kb/s
  78. Count of elements                        : 1730
  79. Stream size                              : 19.6 MiB (0%)
  80. Title                                    : CHT
  81. Language                                 : Chinese
  82. Default                                  : No
  83. Forced                                   : No
  84. Menu
  85. 00:00:00.000                             : en:Chapter 01
  86. 00:10:02.602                             : en:Chapter 02
  87. 00:20:03.202                             : en:Chapter 03
  88. 00:30:03.802                             : en:Chapter 04
  89. 00:40:04.402                             : en:Chapter 05
  90. 00:50:05.002                             : en:Chapter 06
  91. 01:00:05.602                             : en:Chapter 07
  92. 01:10:06.202                             : en:Chapter 08
  93. 01:20:06.802                             : en:Chapter 09
  94. 01:30:07.402                             : en:Chapter 10





此处一般会放置磁力链或种子下载链接,不过此链接需要注册会员才能看到,点击“立即注册”
磁力链下载【下载链接仅对注册会员开放,登陆后可见】
BT9527电影天堂 1、BT9527电影天堂提供的BT文件均来源于互联网抓取,只供网友学习交流、技术提升使用。
2、我们遵守BitTorrent点对点协议原则,任何版权问题请联系原资源发布商,我们不处理任何版权纠纷,谢谢!如有争议请联系邮箱:BT9527#hotmail.com(#换成@)
3、如果您发现某页面或地址有错误,请联系站长邮箱BT9527#hotmail.com(#换成@),我们会尽快处理。您的热心是对BT9527电影天堂最大的支持。
4、本站建议去正规影院观看电影以支持电影行业发展。
最新回复 (0)

你可以在 登录 or 注册 后,对此帖发表评论!

返回
发新帖