红菱艳[中文字幕].The.Red.Shoes.1948.2160p.HDR.UHD.BluRay.DD2.0.x265-10bit-ENTHD 12.96GB

版主小s 5月前 369

✔资源类型:BD-4K   ✔电影年份:更 早   ✔电影地区:欧美   ✔电影分类:剧情

◎译  名 红菱艳
◎片  名 The Red Shoes
◎年  代 1948
◎产  地 英国
◎类  别 剧情 / 爱情 / 音乐
◎语  言 英语 / 法语 / 俄语
◎上映日期 1948-09-06(英国)
◎IMDb链接 https://www.imdb.com/title/tt0040725/
◎豆瓣评分 8.2/10 (8950人评价)
◎豆瓣链接 https://movie.douban.com/subject/1299204/
◎片  长 135分钟
◎导  演 迈克尔·鲍威尔 Michael Powell (id:1027955)
       埃默里克·普雷斯伯格 Emeric Pressburger (id:1037079)
◎编  剧 迈克尔·鲍威尔 Michael Powell (id:1027955)
       埃默里克·普雷斯伯格 Emeric Pressburger (id:1037079)
       基思·温特 Keith Winter (id:1025062)
       安徒生 Hans Christian Andersen (id:1002906)
◎演  员 莫伊拉·希勒 Moira Shearer (id:1014297)
       马留斯·戈尔林 Marius Goring (id:1019237)
       邱岳峰 Yuefeng Qiu (id:1314759)
       安东·沃尔布鲁克 Anton Walbrook (id:1041515)
       乔榛 Zhen Qiao (id:1318217)
       李梓 Zi Li (id:1331563)
       露德米拉.车娜 Ludmilla Tchérina (id:1155174)
       莱奥尼德·马赛因 Léonide Massine (id:1023533)
       罗伯特·赫普曼 Robert Helpmann (id:1000554)
       Jerry Verno Jerry Verno (id:1156051)
       奥斯汀·特雷弗 Austin Trevor (id:1028882)
       艾尔伯特·贝瑟曼 Albert Bassermann (id:1050712)
       埃斯蒙德·奈特 Esmond Knight (id:1110591)
       德里克·艾尔菲斯通 Derek Elphinstone (id:1081243)
       伊雷娜·布朗 Irene Browne (id:1072675)
       Eric Berry Eric Berry (id:1065518)
       杰克·卡迪夫 Jack Cardiff (id:1050278)
       雷金纳德·米尔斯 Reginald Mills (id:1292130)
       亚瑟·洛森 Arthur Lawson (id:1289565)

◎简  介
  佩吉(莫伊拉·希勒 Moira Shearer 饰)是一名很有天赋的芭蕾舞演员,她对芭蕾舞的热爱让她觉得她生来便是为了舞蹈。她参加了芭蕾舞剧《红菱艳》的演出,在剧中,她扮演那个穿上红鞋一直舞蹈到死的舞女,她的演出获得了业界的一致好评,她的演艺事业就此扶摇直上。之后,她结识了作曲家朱利安(马留斯·戈尔林 Marius Goring 饰)并且迅速坠入了爱河。为了所爱的人,佩吉放弃了自己的事业,但婚后平静的生活令她无法忍受,似乎总有一种魔力在召唤她穿上舞鞋翩然起舞。佩吉听从了内心的召唤,她离开了朱利安重新回到了舞台,但渐渐的,她想起了自己曾经扮演过的那个穿着红鞋的舞女,她觉得她们的身影正在慢慢重叠,不安的佩吉猛然醒悟,自己生命中最重要的并非舞蹈而是家庭,她冲出剧院想要重拾朱利安的爱情,但一辆火车从天而降,终结了她年轻的生命。                                       
                                    影片荣获1949年奥斯卡最佳配...

◎获奖情况 (共7项)
  第21届奥斯卡金像奖 (1949)
  最佳影片(提名)
  最佳电影故事(提名)
   └──埃默里克·普雷斯伯格 (id:1037079)
  最佳剪辑(提名)
   └──雷金纳德·米尔斯 (id:1292130)
  彩色片最佳艺术指导和布景
  剧情/喜剧片最佳配乐
   └──布莱恩·伊斯德尔 (id:1024040)

  第9届威尼斯电影节 (1948)
  国际奖 国际电影大奖(提名)

  第6届金球奖 (1949)
  电影类 最佳原创配乐
   └──布莱恩·伊斯德尔 (id:1024040)

  1. ##### MediaInfo ######
  2. General
  3. Unique ID                                : 216848355416013835552468370944150214572 (0xA323795F2FC6FB1B7C9E3A2B65B017AC)
  4. Complete name                            : The.Red.Shoes.1948.2160p.HDR.UHD.BluRay.DD2.0.x265-10bit-ENTHD.mkv
  5. Format                                   : Matroska
  6. Format version                           : Version 4
  7. File size                                : 13.0 GiB
  8. Duration                                 : 2 h 15 min
  9. Overall bit rate                         : 13.7 Mb/s
  10. Movie name                               : The Red Shoes 1948 2160p HDR UHD BluRay DD2.0 x265-10bit-HDS
  11. Encoded date                             : UTC 2022-06-17 06:35:30
  12. Writing application                      : mkvmerge v67.0.0 ('Under Stars') 64-bit
  13. Writing library                          : libebml v1.4.2 + libmatroska v1.6.4
  14. Video
  15. ID                                       : 1
  16. Format                                   : HEVC
  17. Format/Info                              : High Efficiency Video Coding
  18. Format profile                           : Main 10@L5.1@High
  19. HDR format                               : SMPTE ST 2086, HDR10 compatible
  20. Codec ID                                 : V_MPEGH/ISO/HEVC
  21. Duration                                 : 2 h 15 min
  22. Bit rate                                 : 13.0 Mb/s
  23. Width                                    : 2 960 pixels
  24. Height                                   : 2 160 pixels
  25. Display aspect ratio                     : 1.370
  26. Frame rate mode                          : Constant
  27. Frame rate                               : 23.976 (24000/1001/53354) FPS
  28. Color space                              : YUV
  29. Chroma subsampling                       : 4:2:0
  30. Bit depth                                : 10 bits
  31. Bits/(Pixel*Frame)                       : 0.085
  32. Stream size                              : 12.3 GiB (95%)
  33. Title                                    : @HDSky
  34. Writing library                          : x265 - H.265/HEVC codec
  35. Default                                  : Yes
  36. Forced                                   : No
  37. Color range                              : Limited
  38. Color primaries                          : BT.2020
  39. Transfer characteristics                 : PQ
  40. Matrix coefficients                      : BT.2020 non-constant
  41. Mastering display color primaries        : Display P3
  42. Mastering display luminance              : min: 0.0001 cd/m2, max: 1000 cd/m2
  43. Maximum Content Light Level              : 282 cd/m2
  44. Maximum Frame-Average Light Level        : 30 cd/m2
  45. Audio
  46. ID                                       : 2
  47. Format                                   : AC-3
  48. Format/Info                              : Audio Coding 3
  49. Commercial name                          : Dolby Digital
  50. Codec ID                                 : A_AC3
  51. Duration                                 : 2 h 15 min
  52. Bit rate mode                            : Constant
  53. Bit rate                                 : 640 kb/s
  54. Channel(s)                               : 1 channel
  55. Channel layout                           : C
  56. Sampling rate                            : 48.0 kHz
  57. Frame rate                               : 31.250 FPS (1536 SPF)
  58. Compression mode                         : Lossy
  59. Stream size                              : 620 MiB (5%)
  60. Title                                    : English
  61. Language                                 : English
  62. Service kind                             : Complete Main
  63. Default                                  : Yes
  64. Forced                                   : No
  65. Text #1
  66. ID                                       : 3
  67. Format                                   : PGS
  68. Muxing mode                              : zlib
  69. Codec ID                                 : S_HDMV/PGS
  70. Codec ID/Info                            : Picture based subtitle format used on BDs/HD-DVDs
  71. Duration                                 : 2 h 10 min
  72. Bit rate                                 : 24.7 kb/s
  73. Count of elements                        : 2147
  74. Stream size                              : 23.1 MiB (0%)
  75. Title                                    : CHS
  76. Language                                 : Chinese
  77. Default                                  : Yes
  78. Forced                                   : No
  79. Text #2
  80. ID                                       : 4
  81. Format                                   : PGS
  82. Muxing mode                              : zlib
  83. Codec ID                                 : S_HDMV/PGS
  84. Codec ID/Info                            : Picture based subtitle format used on BDs/HD-DVDs
  85. Duration                                 : 2 h 10 min
  86. Bit rate                                 : 25.1 kb/s
  87. Count of elements                        : 2147
  88. Stream size                              : 23.5 MiB (0%)
  89. Title                                    : CHT
  90. Language                                 : Chinese
  91. Default                                  : Yes
  92. Forced                                   : No
  93. Text #3
  94. ID                                       : 5
  95. Format                                   : PGS
  96. Muxing mode                              : zlib
  97. Codec ID                                 : S_HDMV/PGS
  98. Codec ID/Info                            : Picture based subtitle format used on BDs/HD-DVDs
  99. Duration                                 : 2 h 10 min
  100. Bit rate                                 : 42.1 kb/s
  101. Count of elements                        : 2147
  102. Stream size                              : 39.4 MiB (0%)
  103. Title                                    : CHS&ENG
  104. Language                                 : Chinese
  105. Default                                  : Yes
  106. Forced                                   : No
  107. Text #4
  108. ID                                       : 6
  109. Format                                   : PGS
  110. Muxing mode                              : zlib
  111. Codec ID                                 : S_HDMV/PGS
  112. Codec ID/Info                            : Picture based subtitle format used on BDs/HD-DVDs
  113. Duration                                 : 2 h 10 min
  114. Bit rate                                 : 42.5 kb/s
  115. Count of elements                        : 2147
  116. Stream size                              : 39.8 MiB (0%)
  117. Title                                    : CHT&ENG
  118. Language                                 : Chinese
  119. Default                                  : Yes
  120. Forced                                   : No
  121. Menu
  122. 00:00:00.000                             : en:第 01 章
  123. 00:03:38.926                             : en:第 02 章
  124. 00:07:24.735                             : en:第 03 章
  125. 00:12:10.187                             : en:第 04 章
  126. 00:16:35.034                             : en:第 05 章
  127. 00:20:38.694                             : en:第 06 章
  128. 00:28:02.555                             : en:第 07 章
  129. 00:33:16.702                             : en:第 08 章
  130. 00:36:36.027                             : en:第 09 章
  131. 00:39:05.842                             : en:第 10 章
  132. 00:42:11.945                             : en:第 11 章
  133. 00:45:05.994                             : en:第 12 章
  134. 00:50:45.791                             : en:第 13 章
  135. 00:54:38.733                             : en:第 14 章
  136. 01:02:02.342                             : en:第 15 章
  137. 01:22:57.889                             : en:第 16 章
  138. 01:28:18.167                             : en:第 17 章
  139. 01:32:08.773                             : en:第 18 章
  140. 01:39:08.567                             : en:第 19 章
  141. 01:47:42.538                             : en:第 20 章
  142. 01:55:38.096                             : en:第 21 章
  143. 02:00:09.159                             : en:第 22 章
  144. 02:02:55.533                             : en:第 23 章
  145. 02:08:26.407                             : en:第 24 章
  146. 02:13:09.439                             : en:第 25 章





此处一般会放置磁力链或种子下载链接,不过此链接需要注册会员才能看到,点击“立即注册”
磁力链下载【下载链接仅对注册会员开放,登陆后可见】
BT9527电影天堂 1、BT9527电影天堂提供的BT文件均来源于互联网抓取,只供网友学习交流、技术提升使用。
2、我们遵守BitTorrent点对点协议原则,任何版权问题请联系原资源发布商,我们不处理任何版权纠纷,谢谢!如有争议请联系邮箱:BT9527#hotmail.com(#换成@)
3、如果您发现某页面或地址有错误,请联系站长邮箱BT9527#hotmail.com(#换成@),我们会尽快处理。您的热心是对BT9527电影天堂最大的支持。
4、本站建议去正规影院观看电影以支持电影行业发展。
最新回复 (0)

你可以在 登录 or 注册 后,对此帖发表评论!

返回
发新帖