人类清除计划4[简英字幕].The.First.Purge.2018.BluRay.1080p.x265.10bit.DDP7.1-MiniHD 5.94GB

版主小s 5月前 208

✔资源类型:暂未分类   ✔电影年份:2018   ✔电影地区:欧美   ✔电影分类:科幻

◎译  名 人类清除计划4 / 杀戮元年(台) / 国定杀戮日:屠亡前传(港) / The Purge: The Island / The Purge 4
◎片  名 The First Purge
◎年  代 2018
◎产  地 美国
◎类  别 科幻 / 惊悚 / 犯罪
◎语  言 英语
◎上映日期 2018-07-04(美国)
◎IMDb链接 https://www.imdb.com/title/tt6133466/
◎豆瓣评分 5.6/10 (19471人评价)
◎豆瓣链接 https://movie.douban.com/subject/26905717/
◎片  长 98分钟
◎导  演 杰拉德·麦克穆雷 Gerard McMurray (id:1377801)
◎编  剧 詹姆斯·德莫纳克 James DeMonaco (id:1282226)
◎演  员 伊兰·诺尔 Y'lan Noel (id:1396836)
       莱克斯·斯科特·戴维斯 Lex Scott Davis (id:1396837)
       乔瓦恩·韦德 Joivan Wade (id:1396838)
       马加 Mugga (id:1392945)
       帕奇·德拉奇 Patch Darragh (id:1333193)
       玛丽莎·托梅 Marisa Tomei (id:1047974)
       劳伦·维勒斯 Lauren Vélez (id:1166181)
       克丽丝滕·索利斯 Kristen Solis (id:1396839)
       莫·麦克雷 Mo McRae (id:1373510)
       史蒂夫·哈里斯 Steve Harris (id:1055408)
       米切尔·爱德华兹 Mitchell Edwards (id:1389998)
       伊恩·布莱克曼 Ian Blackman (id:1062557)
       梅罗妮·迪亚兹 Melonie Diaz (id:1044956)
       迪德尔·古德温 Deidre Goodwin (id:1221614)
       丽维·陈 Levy Tran (id:1359641)
       阿兰·皮特鲁塞泽维斯基 Alan Pietruszewski (id:1328102)
       洛根·克劳福德 Logan Crawford (id:1313082)
       约翰·麦克金蒂 John P. McGinty (id:1375499)
       肖恩·吉斯灵厄姆 Sean Gislingham (id:1395013)
       贾利尔·杰伊·林奇 Jalil Jay Lynch (id:1290519)
       安妮·比萨比亚 Annie Pisapia (id:1392758)
       迪索·拉莫斯 Diezel Ramos (id:1341036)
       希娜·莱恩 Chyna Layne (id:1308936)
       艾伦·威廉森 Aaron V. Williamson (id:1350440)
       德里克·巴斯科 Derek Basco (id:1066819)
       布拉德利·福勒 Bradley Fuller (id:1284314)
       詹姆斯·德莫纳克 James DeMonaco (id:1282226)
       迈克尔·贝 Michael Bay (id:1027776)

◎简  介
  电影聚焦于导致清除计划发生的原因,讲述了由于人口膨胀,社会问题加剧,一个名为New Founding Fathers of America的组织进行了一种社会学理论测试,即在某一孤立的社区进行为时一晚的发泄、攻击、侵略,促成社区人们之间的相互残杀。这一制度在全美推广,一时间马路街道都成为了杀戮的战场。故事的荒谬性吸引了大量观众,第一年的杀戮日就要降临,恶魔们都已经准备好了。
  1. ##### MediaInfo ######
  2. General
  3. Unique ID                                : 260128246028538462677617594341608380550 (0xC3B2E0BA2B872253E70D4960BD0FD886)
  4. Complete name                            : The.First.Purge.2018.BluRay.1080p.x265.10bit.DDP7.1-MiniHD.mkv
  5. Format                                   : Matroska
  6. Format version                           : Version 4
  7. File size                                : 5.94 GiB
  8. Duration                                 : 1 h 37 min
  9. Overall bit rate                         : 8 724 kb/s
  10. Encoded date                             : UTC 2022-06-02 01:07:45
  11. Writing application                      : mkvmerge v68.0.0 ('The Curtain') 64-bit
  12. Writing library                          : libebml v1.4.2 + libmatroska v1.6.4
  13. Video
  14. ID                                       : 1
  15. Format                                   : HEVC
  16. Format/Info                              : High Efficiency Video Coding
  17. Format profile                           : Main 10@L5@High
  18. Codec ID                                 : V_MPEGH/ISO/HEVC
  19. Duration                                 : 1 h 37 min
  20. Bit rate                                 : 7 156 kb/s
  21. Width                                    : 1 920 pixels
  22. Height                                   : 804 pixels
  23. Display aspect ratio                     : 2.40:1
  24. Frame rate mode                          : Constant
  25. Frame rate                               : 23.976 (24000/1001/53354) FPS
  26. Color space                              : YUV
  27. Chroma subsampling                       : 4:2:0
  28. Bit depth                                : 10 bits
  29. Bits/(Pixel*Frame)                       : 0.193
  30. Stream size                              : 4.87 GiB (82%)
  31. Writing library                          : x265 3.5+20-17839cc0d:[Windows][GCC 11.2.0][64 bit] 10bit
  32. Encoding settings                        : cpuid=533541111039 / frame-threads=5 / numa-pools=24,24 / wpp / no-pmode / no-pme / no-psnr / no-ssim / log-level=2 / input-csp=1 / input-res=1920x804 / interlace=0 / total-frames=140150 / level-idc=0 / high-tier=1 / uhd-bd=0 / ref=5 / no-allow-non-conformance / no-repeat-headers / annexb / no-aud / no-eob / no-eos / no-hrd / info / hash=0 / no-temporal-layers / no-open-gop / min-keyint=23 / keyint=250 / gop-lookahead=0 / bframes=9 / b-adapt=2 / b-pyramid / bframe-bias=0 / rc-lookahead=60 / lookahead-slices=0 / NTMzNTQ=uuDQuD2mJt9fsCf / scenecut=40 / no-hist-scenecut / radl=0 / no-splice / no-intra-refresh / ctu=32 / min-cu-size=8 / no-rect / no-amp / max-tu-size=32 / tu-inter-depth=4 / tu-intra-depth=4 / limit-tu=0 / rdoq-level=2 / dynamic-rd=0.00 / no-ssim-rd / signhide / no-tskip / nr-intra=0 / nr-inter=0 / no-constrained-intra / no-strong-intra-smoothing / max-merge=5 / limit-refs=0 / no-limit-modes / me=3 / subme=5 / merange=57 / temporal-mvp / no-frame-dup / no-hme / weightp / weightb / no-analyze-src-pics / deblock=-1:-1 / no-sao / no-sao-non-deblock / rd=4 / selective-sao=0 / no-early-skip / no-rskip / no-fast-intra / no-tskip-fast / no-cu-lossless / b-intra / no-splitrd-skip / rdpenalty=0 / psy-rd=2.00 / psy-rdoq=5.00 / no-rd-refine / no-lossless / cbqpoffs=0 / crqpoffs=0 / rc=crf / crf=21.5 / qcomp=0.70 / qpstep=4 / stats-write=0 / stats-read=0 / vbv-maxrate=100000 / vbv-bufsize=100000 / vbv-init=0.9 / min-vbv-fullness=50.0 / max-vbv-fullness=80.0 / crf-max=0.0 / crf-min=0.0 / ipratio=1.40 / pbratio=1.30 / aq-mode=1 / aq-strength=0.90 / no-cutree / zone-count=0 / no-strict-cbr / qg-size=32 / no-rc-grain / qpmax=69 / qpmin=0 / no-const-vbv / sar=0 / overscan=0 / videoformat=5 / range=0 / colorprim=1 / transfer=1 / colormatrix=1 / chromaloc=0 / display-window=0 / cll=0,0 / min-luma=0 / max-luma=1023 / log2-max-poc-lsb=8 / vui-timing-info / vui-hrd-info / slices=1 / no-opt-qp-pps / no-opt-ref-list-length-pps / no-multi-pass-opt-rps / scenecut-bias=0.05 / hist-threshold=0.03 / no-opt-cu-delta-qp / no-aq-motion / no-hdr10 / no-hdr10-opt / no-dhdr10-opt / no-idr-recovery-sei / analysis-reuse-level=0 / analysis-save-reuse-level=0 / analysis-load-reuse-level=0 / scale-factor=0 / refine-intra=0 / refine-inter=0 / refine-mv=1 / refine-ctu-distortion=0 / no-limit-sao / ctu-info=0 / no-lowpass-dct / refine-analysis-type=0 / copy-pic=1 / max-ausize-factor=1.0 / no-dynamic-refine / no-single-sei / no-hevc-aq / no-svt / no-field / qp-adaptation-range=1.00 / scenecut-aware-qp=0conformance-window-offsets / right=0 / bottom=0 / NTMzNTQ= / decoder-max-rate=0 / no-vbv-live-multi-pass
  33. Default                                  : Yes
  34. Forced                                   : No
  35. Color range                              : Limited
  36. Color primaries                          : BT.709
  37. Transfer characteristics                 : BT.709
  38. Matrix coefficients                      : BT.709
  39. Audio
  40. ID                                       : 2
  41. Format                                   : E-AC-3
  42. Format/Info                              : Enhanced AC-3
  43. Commercial name                          : Dolby Digital Plus
  44. Format profile                           : Blu-ray Disc
  45. Codec ID                                 : A_EAC3
  46. Duration                                 : 1 h 37 min
  47. Bit rate mode                            : Constant
  48. Bit rate                                 : 1 536 kb/s
  49. Channel(s)                               : 8 channels
  50. Channel layout                           : L R C LFE Ls Rs Lb Rb
  51. Sampling rate                            : 48.0 kHz
  52. Frame rate                               : 31.250 FPS (1536 SPF)
  53. Compression mode                         : Lossy
  54. Stream size                              : 1.05 GiB (18%)
  55. Language                                 : English
  56. Service kind                             : Complete Main
  57. Default                                  : Yes
  58. Forced                                   : No
  59. Text #1
  60. ID                                       : 3
  61. ID in the original source medium         : 4613 (0x1205)
  62. Format                                   : PGS
  63. Muxing mode                              : zlib
  64. Codec ID                                 : S_HDMV/PGS
  65. Codec ID/Info                            : Picture based subtitle format used on BDs/HD-DVDs
  66. Duration                                 : 1 h 30 min
  67. Bit rate                                 : 32.2 kb/s
  68. Count of elements                        : 2774
  69. Stream size                              : 20.8 MiB (0%)
  70. Title                                    : chs
  71. Language                                 : Chinese
  72. Default                                  : Yes
  73. Forced                                   : No
  74. Original source medium                   : Blu-ray
  75. Text #2
  76. ID                                       : 4
  77. ID in the original source medium         : 4608 (0x1200)
  78. Format                                   : PGS
  79. Muxing mode                              : zlib
  80. Codec ID                                 : S_HDMV/PGS
  81. Codec ID/Info                            : Picture based subtitle format used on BDs/HD-DVDs
  82. Duration                                 : 1 h 33 min
  83. Bit rate                                 : 47.3 kb/s
  84. Count of elements                        : 2994
  85. Stream size                              : 31.5 MiB (1%)
  86. Language                                 : English
  87. Default                                  : Yes
  88. Forced                                   : No
  89. Original source medium                   : Blu-ray
  90. Menu
  91. 00:00:00.000                             : en:Chapter01
  92. 00:06:25.635                             : en:Chapter02
  93. 00:11:59.802                             : en:Chapter03
  94. 00:16:18.769                             : en:Chapter04
  95. 00:21:18.110                             : en:Chapter05
  96. 00:25:56.388                             : en:Chapter06
  97. 00:30:54.143                             : en:Chapter07
  98. 00:35:31.212                             : en:Chapter08
  99. 00:38:41.110                             : en:Chapter09
  100. 00:43:02.454                             : en:Chapter10
  101. 00:48:34.411                             : en:Chapter11
  102. 00:53:35.086                             : en:Chapter12
  103. 00:55:59.564                             : en:Chapter13
  104. 00:59:13.049                             : en:Chapter14
  105. 01:05:25.713                             : en:Chapter15
  106. 01:09:31.792                             : en:Chapter16
  107. 01:13:23.732                             : en:Chapter17
  108. 01:19:47.532                             : en:Chapter18
  109. 01:24:50.043                             : en:Chapter19
  110. 01:29:54.931                             : en:Chapter20





此处一般会放置磁力链或种子下载链接,不过此链接需要注册会员才能看到,点击“立即注册”
磁力链下载【下载链接仅对注册会员开放,登陆后可见】
BT9527电影天堂 1、BT9527电影天堂提供的BT文件均来源于互联网抓取,只供网友学习交流、技术提升使用。
2、我们遵守BitTorrent点对点协议原则,任何版权问题请联系原资源发布商,我们不处理任何版权纠纷,谢谢!如有争议请联系邮箱:BT9527#hotmail.com(#换成@)
3、如果您发现某页面或地址有错误,请联系站长邮箱BT9527#hotmail.com(#换成@),我们会尽快处理。您的热心是对BT9527电影天堂最大的支持。
4、本站建议去正规影院观看电影以支持电影行业发展。
最新回复 (0)

你可以在 登录 or 注册 后,对此帖发表评论!

返回