人鬼双胞胎[简英字幕].The.Dark.Half.1993.BluRay.1080p.x265.10bit.Flac2.0-MiniHD 8.23GB

版主小s 5月前 247

✔资源类型:暂未分类   ✔电影年份:更 早   ✔电影地区:欧美   ✔电影分类:悬疑

◎译  名 人鬼双胞胎 / 黑暗的一面 / 黑暗的另一半
◎片  名 The Dark Half
◎年  代 1993
◎产  地 美国
◎类  别 悬疑 / 恐怖
◎语  言 英语
◎上映日期 1993-04-23
◎IMDb链接 https://www.imdb.com/title/tt0106664/
◎豆瓣评分 6.3/10 (779人评价)
◎豆瓣链接 https://movie.douban.com/subject/1304342/
◎片  长 122 分钟
◎导  演 乔治·A·罗梅罗 George A. Romero (id:1007001)
◎编  剧 乔治·A·罗梅罗 George A. Romero (id:1007001)
       斯蒂芬·金 Stephen King (id:1049547)
◎演  员 蒂莫西·赫顿 Timothy Hutton (id:1025207)
       埃米·马迪根 Amy Madigan (id:1049630)
       迈克尔·鲁克 Michael Rooker (id:1002751)
       汤姆·马迪罗沙 Tom Mardirosian (id:1115615)
       罗亚尔·达诺 Royal Dano (id:1090287)
       William Cameron William Cameron (id:1075896)
       肯特·布劳德赫斯特 Kent Broadhurst (id:1074696)
       罗伯特·乔伊 Robert Joy (id:1025289)
       朱丽·哈里斯 Julie Harris (id:1036658)
       贝丝·格兰特 Beth Grant (id:1049697)
       切尔西.菲尔德 Chelsea Field (id:1055275)
       Lamont Arnold Lamont Arnold (id:1056937)
       拉特安亚·阿尔达 Rutanya Alda (id:1060232)
       乔治·A·罗梅罗 George A. Romero (id:1007001)
       迪克兰·鲍德温 Declan Baldwin (id:1277768)
       克里斯托弗·杨 Christopher Young (id:1048309)
       托尼·皮尔斯-罗伯茨 Tony Pierce-Roberts (id:1294521)
       帕斯奎尔·布巴 Pasquale Buba (id:1279538)
       Terry Liebling Terry Liebling (id:1121895)
       Cletus Anderson Cletus Anderson (id:1056286)
       Brian J. Stonestreet Brian J. Stonestreet (id:1298511)
       John Vulich John Vulich (id:1029246)
       埃弗雷特·伯勒尔 Everett Burrell (id:1012845)
       Drew Ann Rosenberg Drew Ann Rosenberg (id:1296066)
       彼得·库兰 Peter Kuran (id:1289126)
       Paul Gentry Paul Gentry (id:1004084)

◎简  介
  影片改编自著名惊悚小说作家斯蒂芬·金的同名小说。泰德(蒂莫西·赫顿 Timothy Hutton 饰)是一位小说作家,曾经,他以乔治史塔克为笔名所创作的恐怖小说让他获得了读者的认同和喜爱。如今,对一切渐渐感到厌倦的泰德决定不再拿乔治史塔克当做挡箭牌,他要用自己的真名写作,为此,他甚至为乔治史塔克准备了一座空坟墓,举行了一场虚构的葬礼。                                    
                                然而,也就是从这一天开始,小镇上接连发生了多起凶残的凶杀案,而凶案现场上,居然遍布着泰德的指纹。周围发生的一切让泰德开始怀疑,此事和乔治史塔克有着千丝万缕的关联,然而,乔治史塔克,一个笔名,真的能够犯下这些恐怖的罪行吗?
  1. ##### MediaInfo ######
  2. General
  3. Unique ID                                : 130444183403732985096986423454948682898 (0x6222A2C99C67564F28D531E19D746C92)
  4. Complete name                            : The.Dark.Half.1993.BluRay.1080p.x265.10bit.Flac2.0-MiniHD.mkv
  5. Format                                   : Matroska
  6. Format version                           : Version 4
  7. File size                                : 8.23 GiB
  8. Duration                                 : 2 h 1 min
  9. Overall bit rate mode                    : Variable
  10. Overall bit rate                         : 9 701 kb/s
  11. Encoded date                             : UTC 2022-06-02 01:04:45
  12. Writing application                      : mkvmerge v68.0.0 ('The Curtain') 64-bit
  13. Writing library                          : libebml v1.4.2 + libmatroska v1.6.4
  14. Video
  15. ID                                       : 1
  16. Format                                   : HEVC
  17. Format/Info                              : High Efficiency Video Coding
  18. Format profile                           : Main 10@L5@High
  19. Codec ID                                 : V_MPEGH/ISO/HEVC
  20. Duration                                 : 2 h 1 min
  21. Bit rate                                 : 9 057 kb/s
  22. Width                                    : 1 918 pixels
  23. Height                                   : 1 040 pixels
  24. Display aspect ratio                     : 1.85:1
  25. Frame rate mode                          : Constant
  26. Frame rate                               : 23.976 (24000/1001/53354) FPS
  27. Color space                              : YUV
  28. Chroma subsampling                       : 4:2:0
  29. Bit depth                                : 10 bits
  30. Bits/(Pixel*Frame)                       : 0.189
  31. Stream size                              : 7.68 GiB (93%)
  32. Writing library                          : x265 3.5+20-17839cc0d:[Windows][GCC 11.2.0][64 bit] 10bit
  33. Encoding settings                        : cpuid=533541111039 / frame-threads=5 / numa-pools=24,24 / wpp / no-pmode / no-pme / no-psnr / no-ssim / log-level=2 / input-csp=1 / input-res=1918x1040 / interlace=0 / total-frames=174749 / level-idc=0 / high-tier=1 / uhd-bd=0 / ref=5 / no-allow-non-conformance / no-repeat-headers / annexb / no-aud / no-eob / no-eos / no-hrd / info / hash=0 / no-temporal-layers / no-open-gop / min-keyint=23 / keyint=250 / gop-lookahead=0 / bframes=9 / b-adapt=2 / b-pyramid / bframe-bias=0 / rc-lookahead=60 / lookahead-slices=0 / NTMzNTQ=uuDQuD2mJt9fsCf / scenecut=40 / no-hist-scenecut / radl=0 / no-splice / no-intra-refresh / ctu=32 / min-cu-size=8 / no-rect / no-amp / max-tu-size=32 / tu-inter-depth=4 / tu-intra-depth=4 / limit-tu=0 / rdoq-level=2 / dynamic-rd=0.00 / no-ssim-rd / signhide / no-tskip / nr-intra=0 / nr-inter=0 / no-constrained-intra / no-strong-intra-smoothing / max-merge=5 / limit-refs=0 / no-limit-modes / me=3 / subme=5 / merange=57 / temporal-mvp / no-frame-dup / no-hme / weightp / weightb / no-analyze-src-pics / deblock=-1:-1 / no-sao / no-sao-non-deblock / rd=4 / selective-sao=0 / no-early-skip / no-rskip / no-fast-intra / no-tskip-fast / no-cu-lossless / b-intra / no-splitrd-skip / rdpenalty=0 / psy-rd=2.00 / psy-rdoq=5.00 / no-rd-refine / no-lossless / cbqpoffs=0 / crqpoffs=0 / rc=crf / crf=23.0 / qcomp=0.70 / qpstep=4 / stats-write=0 / stats-read=0 / vbv-maxrate=100000 / vbv-bufsize=100000 / vbv-init=0.9 / min-vbv-fullness=50.0 / max-vbv-fullness=80.0 / crf-max=0.0 / crf-min=0.0 / ipratio=1.40 / pbratio=1.30 / aq-mode=1 / aq-strength=0.90 / no-cutree / zone-count=0 / no-strict-cbr / qg-size=32 / no-rc-grain / qpmax=69 / qpmin=0 / no-const-vbv / sar=0 / overscan=0 / videoformat=5 / range=0 / colorprim=1 / transfer=1 / colormatrix=1 / chromaloc=0 / display-window=0 / cll=0,0 / min-luma=0 / max-luma=1023 / log2-max-poc-lsb=8 / vui-timing-info / vui-hrd-info / slices=1 / no-opt-qp-pps / no-opt-ref-list-length-pps / no-multi-pass-opt-rps / scenecut-bias=0.05 / hist-threshold=0.03 / no-opt-cu-delta-qp / no-aq-motion / no-hdr10 / no-hdr10-opt / no-dhdr10-opt / no-idr-recovery-sei / analysis-reuse-level=0 / analysis-save-reuse-level=0 / analysis-load-reuse-level=0 / scale-factor=0 / refine-intra=0 / refine-inter=0 / refine-mv=1 / refine-ctu-distortion=0 / no-limit-sao / ctu-info=0 / no-lowpass-dct / refine-analysis-type=0 / copy-pic=1 / max-ausize-factor=1.0 / no-dynamic-refine / no-single-sei / no-hevc-aq / no-svt / no-field / qp-adaptation-range=1.00 / scenecut-aware-qp=0conformance-window-offsets / right=0 / bottom=0 / NTMzNTQ= / decoder-max-rate=0 / no-vbv-live-multi-pass
  34. Default                                  : Yes
  35. Forced                                   : No
  36. Color range                              : Limited
  37. Color primaries                          : BT.709
  38. Transfer characteristics                 : BT.709
  39. Matrix coefficients                      : BT.709
  40. Audio
  41. ID                                       : 2
  42. Format                                   : FLAC
  43. Format/Info                              : Free Lossless Audio Codec
  44. Codec ID                                 : A_FLAC
  45. Duration                                 : 2 h 1 min
  46. Bit rate mode                            : Variable
  47. Bit rate                                 : 615 kb/s
  48. Channel(s)                               : 2 channels
  49. Channel layout                           : L R
  50. Sampling rate                            : 48.0 kHz
  51. Frame rate                               : 11.719 FPS (4096 SPF)
  52. Bit depth                                : 16 bits
  53. Compression mode                         : Lossless
  54. Stream size                              : 534 MiB (6%)
  55. Writing library                          : libFLAC 1.2.1 (UTC 2007-09-17)
  56. Language                                 : English
  57. Default                                  : Yes
  58. Forced                                   : No
  59. Text #1
  60. ID                                       : 3
  61. ID in the original source medium         : 4611 (0x1203)
  62. Format                                   : PGS
  63. Muxing mode                              : zlib
  64. Codec ID                                 : S_HDMV/PGS
  65. Codec ID/Info                            : Picture based subtitle format used on BDs/HD-DVDs
  66. Duration                                 : 1 h 54 min
  67. Bit rate                                 : 36.0 kb/s
  68. Count of elements                        : 2208
  69. Stream size                              : 29.4 MiB (0%)
  70. Title                                    : chs
  71. Language                                 : Chinese
  72. Default                                  : Yes
  73. Forced                                   : No
  74. Original source medium                   : Blu-ray
  75. Text #2
  76. ID                                       : 4
  77. ID in the original source medium         : 4609 (0x1201)
  78. Format                                   : PGS
  79. Muxing mode                              : zlib
  80. Codec ID                                 : S_HDMV/PGS
  81. Codec ID/Info                            : Picture based subtitle format used on BDs/HD-DVDs
  82. Duration                                 : 1 h 53 min
  83. Bit rate                                 : 31.8 kb/s
  84. Count of elements                        : 2302
  85. Stream size                              : 25.9 MiB (0%)
  86. Language                                 : English
  87. Default                                  : No
  88. Forced                                   : No
  89. Original source medium                   : Blu-ray
  90. Menu
  91. 00:00:00.000                             : en:Chapter01
  92. 00:06:14.040                             : en:Chapter02
  93. 00:13:04.867                             : en:Chapter03
  94. 00:18:28.357                             : en:Chapter04
  95. 00:22:46.698                             : en:Chapter05
  96. 00:27:05.165                             : en:Chapter06
  97. 00:31:49.574                             : en:Chapter07
  98. 00:36:10.084                             : en:Chapter08
  99. 00:40:52.950                             : en:Chapter09
  100. 00:45:53.292                             : en:Chapter10
  101. 00:59:48.084                             : en:Chapter11
  102. 01:12:15.622                             : en:Chapter12
  103. 01:20:06.760                             : en:Chapter13
  104. 01:27:01.299                             : en:Chapter14
  105. 01:33:47.204                             : en:Chapter15
  106. 01:56:48.459                             : en:Chapter16





此处一般会放置磁力链或种子下载链接,不过此链接需要注册会员才能看到,点击“立即注册”
磁力链下载【下载链接仅对注册会员开放,登陆后可见】
BT9527电影天堂 1、BT9527电影天堂提供的BT文件均来源于互联网抓取,只供网友学习交流、技术提升使用。
2、我们遵守BitTorrent点对点协议原则,任何版权问题请联系原资源发布商,我们不处理任何版权纠纷,谢谢!如有争议请联系邮箱:BT9527#hotmail.com(#换成@)
3、如果您发现某页面或地址有错误,请联系站长邮箱BT9527#hotmail.com(#换成@),我们会尽快处理。您的热心是对BT9527电影天堂最大的支持。
4、本站建议去正规影院观看电影以支持电影行业发展。
最新回复 (0)

你可以在 登录 or 注册 后,对此帖发表评论!

返回
发新帖