假小子[简英字幕].The.Assignment.2016.BluRay.1080p.x265.10bit.DDP5.1-MiniHD 6.17GB

版主小s 5月前 219

✔资源类型:暂未分类   ✔电影年份:2016   ✔电影地区:欧美   ✔电影分类:动作

◎译  名 假小子 / Tomboy / Tomboy, a Revenger's Tale
◎片  名 The Assignment
◎年  代 2016
◎产  地 美国 / 法国 / 加拿大
◎类  别 动作 / 惊悚 / 犯罪
◎语  言 英语
◎上映日期 2016-09-11(多伦多电影节) / 2017-03-03(美国)
◎IMDb链接 https://www.imdb.com/title/tt5034474/
◎豆瓣评分 5.0/10 (1318人评价)
◎豆瓣链接 https://movie.douban.com/subject/26653227/
◎片  长 95分钟
◎导  演 沃尔特·希尔 Walter Hill (id:1014030)
◎编  剧 沃尔特·希尔 Walter Hill (id:1014030)
◎演  员 米歇尔·罗德里格兹 Michelle Rodriguez (id:1025174)
       西格妮·韦弗 Sigourney Weaver (id:1053569)
       托尼·夏尔赫布 Tony Shalhoub (id:1027825)
       安东尼·拉帕格利亚 Anthony LaPaglia (id:1007018)
       特瑞·陈 Terry Chen (id:1004684)
       保罗·麦克吉莱恩 Paul McGillion (id:1013992)
       凯特琳·杰拉德 Caitlin Gerard (id:1315376)
       肯·科齐格 Ken Kirzinger (id:1040687)
       扎克·圣蒂亚戈 Zak Santiago (id:1323532)
       劳洛·查坦德 Lauro Chartrand (id:1027501)
       阿德里安·霍夫 Adrian Hough (id:1344742)
       萨义德·本·萨义德 Sa?d Ben Sa?d (id:1402733)

◎简  介
  影片讲述一名刺客遭到黑帮出卖,落入外科医生手中,结果变性成女人,刺客决议寻求黑帮和医生复仇的故事。罗德里格兹将分饰变性前后的刺客,韦弗则饰演那位变态医生。
  1. ##### MediaInfo ######
  2. General
  3. Unique ID                                : 300934633985436199852813284129218103799 (0xE265E6FC731E4BB9B592C4D78AB209F7)
  4. Complete name                            : The.Assignment.2016.BluRay.1080p.x265.10bit.DDP5.1-MiniHD.mkv
  5. Format                                   : Matroska
  6. Format version                           : Version 4
  7. File size                                : 6.17 GiB
  8. Duration                                 : 1 h 34 min
  9. Overall bit rate                         : 9 309 kb/s
  10. Encoded date                             : UTC 2022-06-15 16:10:18
  11. Writing application                      : mkvmerge v68.0.0 ('The Curtain') 64-bit
  12. Writing library                          : libebml v1.4.2 + libmatroska v1.6.4
  13. Video
  14. ID                                       : 1
  15. Format                                   : HEVC
  16. Format/Info                              : High Efficiency Video Coding
  17. Format profile                           : Main 10@L5@High
  18. Codec ID                                 : V_MPEGH/ISO/HEVC
  19. Duration                                 : 1 h 34 min
  20. Bit rate                                 : 8 256 kb/s
  21. Width                                    : 1 920 pixels
  22. Height                                   : 804 pixels
  23. Display aspect ratio                     : 2.40:1
  24. Frame rate mode                          : Constant
  25. Frame rate                               : 23.976 (24000/1001/53354) FPS
  26. Color space                              : YUV
  27. Chroma subsampling                       : 4:2:0
  28. Bit depth                                : 10 bits
  29. Bits/(Pixel*Frame)                       : 0.223
  30. Stream size                              : 5.47 GiB (89%)
  31. Writing library                          : x265 3.5+20-17839cc0d:[Windows][GCC 11.2.0][64 bit] 10bit
  32. Encoding settings                        : cpuid=533541111039 / frame-threads=5 / numa-pools=24,24 / wpp / no-pmode / no-pme / no-psnr / no-ssim / log-level=2 / input-csp=1 / input-res=1920x804 / interlace=0 / total-frames=136439 / level-idc=0 / high-tier=1 / uhd-bd=0 / ref=5 / no-allow-non-conformance / no-repeat-headers / annexb / no-aud / no-eob / no-eos / no-hrd / info / hash=0 / no-temporal-layers / no-open-gop / min-keyint=23 / keyint=250 / gop-lookahead=0 / bframes=9 / b-adapt=2 / b-pyramid / bframe-bias=0 / rc-lookahead=60 / lookahead-slices=0 / NTMzNTQ=uuDQuD2mJt9fsCf / scenecut=40 / no-hist-scenecut / radl=0 / no-splice / no-intra-refresh / ctu=32 / min-cu-size=8 / no-rect / no-amp / max-tu-size=32 / tu-inter-depth=4 / tu-intra-depth=4 / limit-tu=0 / rdoq-level=2 / dynamic-rd=0.00 / no-ssim-rd / signhide / no-tskip / nr-intra=0 / nr-inter=0 / no-constrained-intra / no-strong-intra-smoothing / max-merge=5 / limit-refs=0 / no-limit-modes / me=3 / subme=5 / merange=57 / temporal-mvp / no-frame-dup / no-hme / weightp / weightb / no-analyze-src-pics / deblock=-1:-1 / no-sao / no-sao-non-deblock / rd=4 / selective-sao=0 / no-early-skip / no-rskip / no-fast-intra / no-tskip-fast / no-cu-lossless / b-intra / no-splitrd-skip / rdpenalty=0 / psy-rd=2.00 / psy-rdoq=5.00 / no-rd-refine / no-lossless / cbqpoffs=0 / crqpoffs=0 / rc=crf / crf=21.5 / qcomp=0.70 / qpstep=4 / stats-write=0 / stats-read=0 / vbv-maxrate=100000 / vbv-bufsize=100000 / vbv-init=0.9 / min-vbv-fullness=50.0 / max-vbv-fullness=80.0 / crf-max=0.0 / crf-min=0.0 / ipratio=1.40 / pbratio=1.30 / aq-mode=1 / aq-strength=0.90 / no-cutree / zone-count=0 / no-strict-cbr / qg-size=32 / no-rc-grain / qpmax=69 / qpmin=0 / no-const-vbv / sar=0 / overscan=0 / videoformat=5 / range=0 / colorprim=1 / transfer=1 / colormatrix=1 / chromaloc=0 / display-window=0 / cll=0,0 / min-luma=0 / max-luma=1023 / log2-max-poc-lsb=8 / vui-timing-info / vui-hrd-info / slices=1 / no-opt-qp-pps / no-opt-ref-list-length-pps / no-multi-pass-opt-rps / scenecut-bias=0.05 / hist-threshold=0.03 / no-opt-cu-delta-qp / no-aq-motion / no-hdr10 / no-hdr10-opt / no-dhdr10-opt / no-idr-recovery-sei / analysis-reuse-level=0 / analysis-save-reuse-level=0 / analysis-load-reuse-level=0 / scale-factor=0 / refine-intra=0 / refine-inter=0 / refine-mv=1 / refine-ctu-distortion=0 / no-limit-sao / ctu-info=0 / no-lowpass-dct / refine-analysis-type=0 / copy-pic=1 / max-ausize-factor=1.0 / no-dynamic-refine / no-single-sei / no-hevc-aq / no-svt / no-field / qp-adaptation-range=1.00 / scenecut-aware-qp=0conformance-window-offsets / right=0 / bottom=0 / NTMzNTQ= / decoder-max-rate=0 / no-vbv-live-multi-pass
  33. Default                                  : Yes
  34. Forced                                   : No
  35. Color range                              : Limited
  36. Color primaries                          : BT.709
  37. Transfer characteristics                 : BT.709
  38. Matrix coefficients                      : BT.709
  39. Audio
  40. ID                                       : 2
  41. Format                                   : E-AC-3
  42. Format/Info                              : Enhanced AC-3
  43. Commercial name                          : Dolby Digital Plus
  44. Codec ID                                 : A_EAC3
  45. Duration                                 : 1 h 34 min
  46. Bit rate mode                            : Constant
  47. Bit rate                                 : 1 024 kb/s
  48. Channel(s)                               : 6 channels
  49. Channel layout                           : L R C LFE Ls Rs
  50. Sampling rate                            : 48.0 kHz
  51. Frame rate                               : 31.250 FPS (1536 SPF)
  52. Compression mode                         : Lossy
  53. Stream size                              : 695 MiB (11%)
  54. Language                                 : English
  55. Service kind                             : Complete Main
  56. Default                                  : Yes
  57. Forced                                   : No
  58. Text #1
  59. ID                                       : 3
  60. Format                                   : PGS
  61. Muxing mode                              : zlib
  62. Codec ID                                 : S_HDMV/PGS
  63. Codec ID/Info                            : Picture based subtitle format used on BDs/HD-DVDs
  64. Duration                                 : 1 h 32 min
  65. Bit rate                                 : 23.5 kb/s
  66. Count of elements                        : 1938
  67. Stream size                              : 15.5 MiB (0%)
  68. Title                                    : chs
  69. Language                                 : Chinese
  70. Default                                  : Yes
  71. Forced                                   : No
  72. Text #2
  73. ID                                       : 4
  74. Format                                   : PGS
  75. Muxing mode                              : zlib
  76. Codec ID                                 : S_HDMV/PGS
  77. Codec ID/Info                            : Picture based subtitle format used on BDs/HD-DVDs
  78. Duration                                 : 1 h 32 min
  79. Bit rate                                 : 34.2 kb/s
  80. Count of elements                        : 2826
  81. Stream size                              : 22.6 MiB (0%)
  82. Language                                 : English
  83. Default                                  : No
  84. Forced                                   : No
  85. Menu
  86. 00:00:00.000                             : en:Chapter01
  87. 00:06:05.865                             : en:Chapter02
  88. 00:13:09.246                             : en:Chapter03
  89. 00:18:48.210                             : en:Chapter04
  90. 00:24:14.578                             : en:Chapter05
  91. 00:30:49.347                             : en:Chapter06
  92. 00:36:29.228                             : en:Chapter07
  93. 00:41:31.363                             : en:Chapter08
  94. 00:48:11.847                             : en:Chapter09
  95. 00:54:17.796                             : en:Chapter10
  96. 01:00:19.866                             : en:Chapter11
  97. 01:04:19.355                             : en:Chapter12
  98. 01:09:47.683                             : en:Chapter13
  99. 01:17:38.737                             : en:Chapter14
  100. 01:25:05.600                             : en:Chapter15
  101. 01:30:51.446                             : en:Chapter16





此处一般会放置磁力链或种子下载链接,不过此链接需要注册会员才能看到,点击“立即注册”
磁力链下载【下载链接仅对注册会员开放,登陆后可见】
BT9527电影天堂 1、BT9527电影天堂提供的BT文件均来源于互联网抓取,只供网友学习交流、技术提升使用。
2、我们遵守BitTorrent点对点协议原则,任何版权问题请联系原资源发布商,我们不处理任何版权纠纷,谢谢!如有争议请联系邮箱:BT9527#hotmail.com(#换成@)
3、如果您发现某页面或地址有错误,请联系站长邮箱BT9527#hotmail.com(#换成@),我们会尽快处理。您的热心是对BT9527电影天堂最大的支持。
4、本站建议去正规影院观看电影以支持电影行业发展。
最新回复 (0)

你可以在 登录 or 注册 后,对此帖发表评论!

返回
发新帖