健听女孩[杜比视界版本][简繁英特效字幕].CODA.2021.UHD.BluRay.2160p.x265.DV.HDR.DTS-HD.MA.5.1.REPACK-MiniHD 21.22GB

版主小s 5月前 231

✔资源类型:BD-4K   ✔电影年份:2021   ✔电影地区:欧美   ✔电影分类:剧情

◎译  名 健听女孩 / 乐动心旋律(台) / 贝利叶一家 美国版 / 心之旋律 / 终曲 / Children of Deaf Adults
◎片  名 CODA
◎年  代 2021
◎产  地 美国 / 法国 / 加拿大
◎类  别 剧情 / 音乐
◎语  言 美国手语 / 英语
◎上映日期 2021-01-29(圣丹斯电影节)
◎IMDb链接 https://www.imdb.com/title/tt10366460/
◎豆瓣评分 8.6/10 (98181人评价)
◎豆瓣链接 https://movie.douban.com/subject/35048413/
◎片  长 111分钟
◎导  演 夏安·海德 Sian Heder (id:1219962)
◎编  剧 夏安·海德 Sian Heder (id:1219962)
       维多利亚·贝多斯 Victoria Bedos (id:1461418)
       斯坦尼斯拉斯·卡雷·德·马尔博格 Stanislas Carré de Malberg (id:1076868)
       艾里克·拉缇戈 Eric Lartigau (id:1313896)
       托马斯·彼得葛恩 Thomas Bidegain (id:1320175)
◎演  员 艾米莉亚·琼斯 Emilia Jones (id:1318340)
       特洛伊·科特苏尔 Troy Kotsur (id:1460937)
       玛丽·玛特琳 Marlee Matlin (id:1049675)
       丹尼尔·杜兰特 Daniel Durant (id:1460919)
       欧赫尼奥·德尔维斯 Eugenio Derbez (id:1050224)
       福迪亚·瓦尔什-匹罗 Ferdia Walsh-Peelo (id:1357404)
       艾米·福赛思 Amy Forsyth (id:1356992)
       凯文·查普曼 Kevin Chapman (id:1280483)
       约翰·菲奥里 John Fiore (id:1283759)
       朗尼·法默 Lonnie Farmer (id:1454177)
       科特兰·琼斯 Courtland Jones (id:1469360)
       莫莉·贝丝·托马斯 Molly Beth Thomas (id:1469361)
       阿雅娜·布朗 Ayana Brown (id:1469362)
       杰森·普加奇 Jason Pugatch (id:1469363)
       基亚娜·法内 Kyana Fanene (id:1469364)
       安尼莉·利斯特 Anilee List (id:1469365)
       史蒂芬·卡利斯坎 Stephen Caliskan (id:1460938)
       何塞·冈斯·阿尔维斯 Jose Guns Alves (id:1446090)
       欧文·伯克 Owen Burke (id:1387221)
       梅利莎·麦克米金 Melissa McMeekin (id:1273144)
       埃里卡·麦克德莫特 Erica McDermott (id:1272004)
       玛丽·安·绍布 Mary Ann Schaub (id:1468811)
       莎拉·克拉克 Sarah Clarke (id:1004630)
       大卫·纽森 David Newsom (id:1129597)
       大卫·布肯德尔 David Bookbinder (id:1231328)
       理查德·钱德勒 Richard Chandler (id:1052519)
       罗布·勒维克 Rob Lévesque (id:1468812)
       琪拉·皮查多 Kiara Pichardo (id:1416808)
       斯通·马汀 Stone Martin (id:1470022)
       菲利普·胡瑟莱 Philippe Rousselet  (id:1467916)
       法布里斯·吉安费米 Fabrice Gianfermi  (id:1467917)
       帕特里克·瓦克斯伯格 Patrick Wachsberger  (id:1467918)
       马里乌斯·代·弗里斯 Marius De Vries (id:1276426)
       杰里米·伍尔西 Jeremy Woolsey (id:1046364)
       黛安·莱德曼 Diane Lederman (id:1338278)

◎简  介
  故事聚焦一个聋哑家庭中唯一有听觉的高中女孩鲁比,她每天都要帮助父母和哥哥操持渔业生意,在加入高中合唱团后,鲁比对歌唱的热爱打动了合唱团长,团长决定让鲁比在梦想和家族之间做一个选择。

◎获奖情况 (共21项)
  第94届奥斯卡金像奖 (2022)
  最佳影片
  最佳男配角
   └──特洛伊·科特苏尔 (id:1460937)
  最佳改编剧本
   └──夏安·海德 (id:1219962)

  第79届金球奖 (2022)
  电影类 最佳剧情片(提名)
  电影类 最佳男配角(提名)
   └──特洛伊·科特苏尔 (id:1460937)

  第75届英国电影学院奖 (2022)
  电影奖 最佳女主角(提名)
   └──艾米莉亚·琼斯 (id:1318340)
  电影奖 最佳男配角
   └──特洛伊·科特苏尔 (id:1460937)
  电影奖 最佳改编剧本

  第37届圣丹斯电影节 (2021)
  评审团大奖 剧情片
   └──夏安·海德 (id:1219962)
  观众奖 剧情片
   └──夏安·海德 (id:1219962)
  导演奖 剧情片
   └──夏安·海德 (id:1219962)

  第28届美国演员工会奖 (2022)
  电影奖 最佳男配角
   └──特洛伊·科特苏尔 (id:1460937)
  电影奖 最佳群戏

  第74届美国编剧工会奖 (2022)
  电影奖 最佳改编剧本
   └──夏安·海德 (id:1219962)

  第27届美国评论家选择电影奖 (2022)
  最佳影片(提名)
  最佳男配角
   └──特洛伊·科特苏尔 (id:1460937)
  最佳青少年演员(提名)
   └──艾米莉亚·琼斯 (id:1318340)
  最佳改编剧本(提名)
   └──夏安·海德 (id:1219962)

  第31届哥谭独立电影奖 (2021)
  最佳配角演出
   └──特洛伊·科特苏尔 (id:1460937)
  最佳配角演出(提名)
   └──玛丽·玛特琳 (id:1049675)
  年度突破演员
   └──艾米莉亚·琼斯 (id:1318340)

  1. ##### MediaInfo ######
  2. General
  3. Unique ID                                : 186594145159300258662553141770033699958 (0x8C60B9A4261E8D3BD6B01A4E97221C76)
  4. Complete name                            : CODA.2021.UHD.BluRay.2160p.x265.DV.HDR.DTS-HD.MA.5.1.REPACK-MiniHD.mkv
  5. Format                                   : Matroska
  6. Format version                           : Version 4
  7. File size                                : 21.2 GiB
  8. Duration                                 : 1 h 52 min
  9. Overall bit rate mode                    : Variable
  10. Overall bit rate                         : 27.1 Mb/s
  11. Movie name                               : CODA (2021) UHD BluRay 2160p - FRDS
  12. Encoded date                             : UTC 2022-06-10 13:10:05
  13. Writing application                      : mkvmerge v68.0.0 ('The Curtain') 64-bit
  14. Writing library                          : libebml v1.4.2 + libmatroska v1.6.4
  15. IMDB                                     : tt10366460
  16. TMDB                                     : movie/776503
  17. Video
  18. ID                                       : 1
  19. Format                                   : HEVC
  20. Format/Info                              : High Efficiency Video Coding
  21. Format profile                           : Main 10@L5.1@High
  22. HDR format                               : SMPTE ST 2086, HDR10 compatible
  23. Codec ID                                 : V_MPEGH/ISO/HEVC
  24. Duration                                 : 1 h 52 min
  25. Bit rate                                 : 23.0 Mb/s
  26. Width                                    : 3 840 pixels
  27. Height                                   : 2 076 pixels
  28. Display aspect ratio                     : 1.85:1
  29. Frame rate mode                          : Constant
  30. Frame rate                               : 24.000 FPS
  31. Color space                              : YUV
  32. Chroma subsampling                       : 4:2:0
  33. Bit depth                                : 10 bits
  34. Bits/(Pixel*Frame)                       : 0.120
  35. Stream size                              : 18.0 GiB (85%)
  36. Writing library                          : x265 3.3+3-g8f8e332f1+29:[Windows][#Erg`Djh#][@Yuuki] made by @Dongfangbubai
  37. Encoding settings                        : rc=crf / crf=19.0000 / qcomp=0.70 / qpstep=4 / stats-write=0 / stats-read=0 / vbv-maxrate=160000 / vbv-bufsize=160000 / vbv-init=0.9 / crf-max=0.0 / crf-min=0.0 / no-lossless / no-cu-lossless / aq-mode=3 / aq-strength=0.80 / cbqpoffs=-3 / crqpoffs=-3 / ipratio=1.40 / pbratio=1.30 / psy-rd=2.00 / psy-rdoq=3.00 / deblock=-1:-1 / ref=5 / limit-refs=0 / no-limit-modes / bframes=8 / b-adapt=2 / bframe-bias=0 / b-pyramid / b-intra / weightp / weightb / min-keyint=24 / max-keyint=240 / rc-lookahead=60 / gop-lookahead=0 / NTMzNTQ=uuDQuD2mJt9fsCf / scenecut=40 / hist-scenecut=0 / radl=0 / max-cu-size=32 / min-cu-size=8 / me=3 / subme=4 / merange=25 / rdoq-level=2 / rd=4 / rdpenalty=1 / dynamic-rd=0.00 / no-rd-refine / ----- / no-cutree / no-sao / no-rect / no-amp / no-open-gop / wpp / pmode / pme / no-psnr / no-ssim / nr-intra=0 / nr-inter=0 / no-constrained-intra / no-strong-intra-smoothing / max-tu-size=32 / tu-inter-depth=2 / tu-intra-depth=2 / limit-tu=0 / qg-size=32 / qpmax=69 / qpmin=0 / ----- / cpuid=533541176575 / frame-threads=6 / numa-pools=54,- / log-level=2 / input-csp=1 / input-res=3840x2076 / interlace=0 / level-idc=0 / high-tier=1 / uhd-bd=0 / no-allow-non-conformance / repeat-headers / no-aud / hrd / info / hash=0 / no-temporal-layers / lookahead-slices=0 / no-splice / no-intra-refresh / no-ssim-rd / signhide / no-tskip / max-merge=3 / temporal-mvp / no-frame-dup / no-hme / no-analyze-src-pics / no-sao-non-deblock / selective-sao=0 / no-early-skip / no-rskip / no-fast-intra / no-tskip-fast / no-splitrd-skip / zone-count=0 / no-strict-cbr / no-rc-grain / no-const-vbv / sar=0 / overscan=0 / videoformat=5 / range=0 / colorprim=9 / transfer=16 / colormatrix=9 / chromaloc=0 / display-window=0 / master-display=G(13250,34500)B(7500,3000)R(34000,16000)WP(15635,16450)L(10000000,1) / cll=813,321 / min-luma=0 / max-luma=1023 / log2-max-poc-lsb=8 / vui-timing-info / vui-hrd-info / slices=1 / no-opt-qp-pps / no-opt-ref-list-length-pps / no-multi-pass-opt-rps / scenecut-bias=0.05 / hist-threshold=0.01 / no-opt-cu-delta-qp / no-aq-motion / hdr10 / hdr10-opt / no-dhdr10-opt / no-idr-recovery-sei / analysis-reuse-level=0 / analysis-save-reuse-level=0 / analysis-load-reuse-level=0 / scale-factor=0 / refine-intra=0 / refine-inter=0 / refine-mv=1 / refine-ctu-distortion=0 / no-limit-sao / ctu-info=0 / no-lowpass-dct / refine-analysis-type=0 / copy-pic=1 / max-ausize-factor=1.0 / no-dynamic-refine / no-single-sei / no-hevc-aq / no-svt / no-field / qp-adaptation-range=1.00 / no-scenecut-aware-qpconformance-window-offsets / right=0 / bottom=0 / NTMzNTQ=
  38. Default                                  : Yes
  39. Forced                                   : No
  40. Color range                              : Limited
  41. Color primaries                          : BT.2020
  42. Transfer characteristics                 : PQ
  43. Matrix coefficients                      : BT.2020 non-constant
  44. Mastering display color primaries        : Display P3
  45. Mastering display luminance              : min: 0.0001 cd/m2, max: 1000 cd/m2
  46. Maximum Content Light Level              : 813 cd/m2
  47. Maximum Frame-Average Light Level        : 321 cd/m2
  48. Audio
  49. ID                                       : 2
  50. Format                                   : DTS XLL
  51. Format/Info                              : Digital Theater Systems
  52. Commercial name                          : DTS-HD Master Audio
  53. Codec ID                                 : A_DTS
  54. Duration                                 : 1 h 52 min
  55. Bit rate mode                            : Variable
  56. Bit rate                                 : 3 966 kb/s
  57. Channel(s)                               : 6 channels
  58. Channel layout                           : C L R Ls Rs LFE
  59. Sampling rate                            : 48.0 kHz
  60. Frame rate                               : 93.750 FPS (512 SPF)
  61. Bit depth                                : 24 bits
  62. Compression mode                         : Lossless
  63. Stream size                              : 3.11 GiB (15%)
  64. Language                                 : English
  65. Default                                  : Yes
  66. Forced                                   : No
  67. Text #1
  68. ID                                       : 3
  69. Format                                   : PGS
  70. Muxing mode                              : zlib
  71. Codec ID                                 : S_HDMV/PGS
  72. Codec ID/Info                            : Picture based subtitle format used on BDs/HD-DVDs
  73. Duration                                 : 1 h 43 min
  74. Bit rate                                 : 31.6 kb/s
  75. Count of elements                        : 3246
  76. Stream size                              : 23.5 MiB (0%)
  77. Title                                    : English (SDH)
  78. Language                                 : English
  79. Default                                  : No
  80. Forced                                   : No
  81. Text #2
  82. ID                                       : 4
  83. Format                                   : PGS
  84. Muxing mode                              : zlib
  85. Codec ID                                 : S_HDMV/PGS
  86. Codec ID/Info                            : Picture based subtitle format used on BDs/HD-DVDs
  87. Duration                                 : 1 h 43 min
  88. Bit rate                                 : 28.9 kb/s
  89. Count of elements                        : 2688
  90. Stream size                              : 21.4 MiB (0%)
  91. Title                                    : Italian (SDH)
  92. Language                                 : Italian
  93. Default                                  : No
  94. Forced                                   : No
  95. Text #3
  96. ID                                       : 5
  97. Format                                   : UTF-8
  98. Codec ID                                 : S_TEXT/UTF8
  99. Codec ID/Info                            : UTF-8 Plain Text
  100. Duration                                 : 1 h 44 min
  101. Bit rate                                 : 53 b/s
  102. Count of elements                        : 1423
  103. Stream size                              : 41.2 KiB (0%)
  104. Language                                 : Romanian
  105. Default                                  : No
  106. Forced                                   : No
  107. Text #4
  108. ID                                       : 6
  109. Format                                   : PGS
  110. Muxing mode                              : zlib
  111. Codec ID                                 : S_HDMV/PGS
  112. Codec ID/Info                            : Picture based subtitle format used on BDs/HD-DVDs
  113. Duration                                 : 1 h 45 min
  114. Bit rate                                 : 52.6 kb/s
  115. Count of elements                        : 5878
  116. Stream size                              : 39.5 MiB (0%)
  117. Title                                    : 简中特效
  118. Language                                 : Chinese
  119. Default                                  : No
  120. Forced                                   : No
  121. Text #5
  122. ID                                       : 7
  123. Format                                   : PGS
  124. Muxing mode                              : zlib
  125. Codec ID                                 : S_HDMV/PGS
  126. Codec ID/Info                            : Picture based subtitle format used on BDs/HD-DVDs
  127. Duration                                 : 1 h 45 min
  128. Bit rate                                 : 70.0 kb/s
  129. Count of elements                        : 5878
  130. Stream size                              : 52.6 MiB (0%)
  131. Title                                    : 简英特效
  132. Language                                 : Chinese
  133. Default                                  : Yes
  134. Forced                                   : No
  135. Text #6
  136. ID                                       : 8
  137. Format                                   : PGS
  138. Muxing mode                              : zlib
  139. Codec ID                                 : S_HDMV/PGS
  140. Codec ID/Info                            : Picture based subtitle format used on BDs/HD-DVDs
  141. Duration                                 : 1 h 45 min
  142. Bit rate                                 : 53.2 kb/s
  143. Count of elements                        : 5874
  144. Stream size                              : 40.0 MiB (0%)
  145. Title                                    : 繁中特效
  146. Language                                 : Chinese
  147. Default                                  : No
  148. Forced                                   : No
  149. Text #7
  150. ID                                       : 9
  151. Format                                   : PGS
  152. Muxing mode                              : zlib
  153. Codec ID                                 : S_HDMV/PGS
  154. Codec ID/Info                            : Picture based subtitle format used on BDs/HD-DVDs
  155. Duration                                 : 1 h 45 min
  156. Bit rate                                 : 70.6 kb/s
  157. Count of elements                        : 5874
  158. Stream size                              : 53.1 MiB (0%)
  159. Title                                    : 繁英特效
  160. Language                                 : Chinese
  161. Default                                  : No
  162. Forced                                   : No
  163. Menu
  164. 00:00:00.000                             : en:Chapter 1
  165. 00:08:49.750                             : en:Chapter 2
  166. 00:19:26.625                             : en:Chapter 3
  167. 00:27:56.917                             : en:Chapter 4
  168. 00:37:13.708                             : en:Chapter 5
  169. 00:46:35.750                             : en:Chapter 6
  170. 00:56:19.458                             : en:Chapter 7
  171. 01:05:26.417                             : en:Chapter 8
  172. 01:14:39.750                             : en:Chapter 9
  173. 01:21:09.500                             : en:Chapter 10
  174. 01:32:48.458                             : en:Chapter 11
  175. 01:42:26.958                             : en:Chapter 12





此处一般会放置磁力链或种子下载链接,不过此链接需要注册会员才能看到,点击“立即注册”
磁力链下载【下载链接仅对注册会员开放,登陆后可见】
BT9527电影天堂 1、BT9527电影天堂提供的BT文件均来源于互联网抓取,只供网友学习交流、技术提升使用。
2、我们遵守BitTorrent点对点协议原则,任何版权问题请联系原资源发布商,我们不处理任何版权纠纷,谢谢!如有争议请联系邮箱:BT9527#hotmail.com(#换成@)
3、如果您发现某页面或地址有错误,请联系站长邮箱BT9527#hotmail.com(#换成@),我们会尽快处理。您的热心是对BT9527电影天堂最大的支持。
4、本站建议去正规影院观看电影以支持电影行业发展。
最新回复 (0)

你可以在 登录 or 注册 后,对此帖发表评论!

返回
发新帖