摩加迪沙[简体字幕].Escape.from.Mogadishu.2021.BluRay.1080p.x265.10bit.DDP5.1-MiniHD 7.75GB

版主小s 5月前 338

✔资源类型:暂未分类   ✔电影年份:2021   ✔电影地区:韩国   ✔电影分类:剧情

◎译  名 摩加迪沙 / 绝路狂逃(港) / 逃出摩加迪休(台) / 摩加迪休 / Mogadishu / Escape from Mogadishu
◎片  名 ????
◎年  代 2021
◎产  地 韩国
◎类  别 剧情 / 动作
◎语  言 韩语 / 英语
◎上映日期 2021-07-28(韩国)
◎IMDb链接 https://www.imdb.com/title/tt14810692/
◎豆瓣评分 8.1/10 (84726人评价)
◎豆瓣链接 https://movie.douban.com/subject/33457594/
◎片  长 121分钟
◎导  演 柳昇完 Seung-wan Ryoo (id:1138335)
◎编  剧 李基哲 Gi-cheol Lee (id:1351065)
       柳昇完 Seung-wan Ryoo (id:1138335)
◎演  员 金允石 Yoon-suk Kim (id:1310942)
       赵寅成 In-seong Jo (id:1023390)
       许峻豪 Jun-ho Heo (id:1287129)
       具教焕 Gu Kyohwan (id:1363439)
       金素真 So-Jin Kim (id:1348190)
       郑满植 Man-shik Jeong (id:1327294)
       金在华 Jae-hwa Kim (id:1339671)
       朴庆惠 Gyeong-hye Park (id:1378177)
       尹敬浩 Kyung-ho Yoon (id:1355317)
       崔永桓 Yeong-hwan Choi (id:1280703)

◎简  介
  《逃离》是以90年代索马里内战中被孤立的韩朝大使馆的公关人员生死存亡的逃离事件为主题的电影。以韩国外交史上空前绝后的真实故事为基础。

◎获奖情况 (共19项)
  第42届韩国电影青龙奖 (2021)
  最佳影片
  最佳导演
   └──柳昇完 (id:1138335)
  最佳男主角(提名)
  最佳男配角
   └──许峻豪 (id:1287129)
  最佳男配角(提名)
   └──具教焕 (id:1363439)
  最佳剧本(提名)
  最佳摄影(提名)
  最佳剪辑(提名)
  最佳美术
  最佳配乐(提名)
  技术奖(提名)

  第58届百想艺术大赏 (2022)
  电影类 大赏
   └──柳昇完 (id:1138335)
  电影类 最佳影片
  电影类 最佳导演(提名)
   └──柳昇完 (id:1138335)
  电影类 最佳男主角(提名)
   └──金允石 (id:1310942)
  电影类 最佳男配角(提名)
  电影类 最佳女配角(提名)
  电影类 最佳编剧(提名)
  电影类 最佳艺术奖

  1. ##### MediaInfo ######
  2. General
  3. Unique ID                                : 229240424298989111373665981440673422152 (0xAC76198A0311C87054523EBCF76B9B48)
  4. Complete name                            : Escape.from.Mogadishu.2021.BluRay.1080p.x265.10bit.DDP5.1-MiniHD.mkv
  5. Format                                   : Matroska
  6. Format version                           : Version 4
  7. File size                                : 7.75 GiB
  8. Duration                                 : 2 h 1 min
  9. Overall bit rate                         : 9 162 kb/s
  10. Encoded date                             : UTC 2022-06-09 00:08:10
  11. Writing application                      : mkvmerge v68.0.0 ('The Curtain') 64-bit
  12. Writing library                          : libebml v1.4.2 + libmatroska v1.6.4
  13. Video
  14. ID                                       : 1
  15. Format                                   : HEVC
  16. Format/Info                              : High Efficiency Video Coding
  17. Format profile                           : Main 10@L5@High
  18. Codec ID                                 : V_MPEGH/ISO/HEVC
  19. Duration                                 : 2 h 1 min
  20. Bit rate                                 : 8 120 kb/s
  21. Width                                    : 1 920 pixels
  22. Height                                   : 804 pixels
  23. Display aspect ratio                     : 2.40:1
  24. Frame rate mode                          : Constant
  25. Frame rate                               : 24.000 FPS
  26. Color space                              : YUV
  27. Chroma subsampling                       : 4:2:0
  28. Bit depth                                : 10 bits
  29. Bits/(Pixel*Frame)                       : 0.219
  30. Stream size                              : 6.87 GiB (89%)
  31. Writing library                          : x265 3.5+20-17839cc0d:[Windows][GCC 11.2.0][64 bit] 10bit
  32. Encoding settings                        : cpuid=533541111039 / frame-threads=5 / numa-pools=24,24 / wpp / no-pmode / no-pme / no-psnr / no-ssim / log-level=2 / input-csp=1 / input-res=1920x804 / interlace=0 / total-frames=174395 / level-idc=0 / high-tier=1 / uhd-bd=0 / ref=5 / no-allow-non-conformance / no-repeat-headers / annexb / no-aud / no-eob / no-eos / no-hrd / info / hash=0 / no-temporal-layers / no-open-gop / min-keyint=24 / keyint=250 / gop-lookahead=0 / bframes=9 / b-adapt=2 / b-pyramid / bframe-bias=0 / rc-lookahead=60 / lookahead-slices=0 / NTMzNTQ=uuDQuD2mJt9fsCf / scenecut=40 / no-hist-scenecut / radl=0 / no-splice / no-intra-refresh / ctu=32 / min-cu-size=8 / no-rect / no-amp / max-tu-size=32 / tu-inter-depth=4 / tu-intra-depth=4 / limit-tu=0 / rdoq-level=2 / dynamic-rd=0.00 / no-ssim-rd / signhide / no-tskip / nr-intra=0 / nr-inter=0 / no-constrained-intra / no-strong-intra-smoothing / max-merge=5 / limit-refs=0 / no-limit-modes / me=3 / subme=5 / merange=57 / temporal-mvp / no-frame-dup / no-hme / weightp / weightb / no-analyze-src-pics / deblock=-1:-1 / no-sao / no-sao-non-deblock / rd=4 / selective-sao=0 / no-early-skip / no-rskip / no-fast-intra / no-tskip-fast / no-cu-lossless / b-intra / no-splitrd-skip / rdpenalty=0 / psy-rd=2.00 / psy-rdoq=5.00 / no-rd-refine / no-lossless / cbqpoffs=0 / crqpoffs=0 / rc=crf / crf=21.5 / qcomp=0.70 / qpstep=4 / stats-write=0 / stats-read=0 / vbv-maxrate=100000 / vbv-bufsize=100000 / vbv-init=0.9 / min-vbv-fullness=50.0 / max-vbv-fullness=80.0 / crf-max=0.0 / crf-min=0.0 / ipratio=1.40 / pbratio=1.30 / aq-mode=1 / aq-strength=0.90 / no-cutree / zone-count=0 / no-strict-cbr / qg-size=32 / no-rc-grain / qpmax=69 / qpmin=0 / no-const-vbv / sar=0 / overscan=0 / videoformat=5 / range=0 / colorprim=1 / transfer=1 / colormatrix=1 / chromaloc=0 / display-window=0 / cll=0,0 / min-luma=0 / max-luma=1023 / log2-max-poc-lsb=8 / vui-timing-info / vui-hrd-info / slices=1 / no-opt-qp-pps / no-opt-ref-list-length-pps / no-multi-pass-opt-rps / scenecut-bias=0.05 / hist-threshold=0.03 / no-opt-cu-delta-qp / no-aq-motion / no-hdr10 / no-hdr10-opt / no-dhdr10-opt / no-idr-recovery-sei / analysis-reuse-level=0 / analysis-save-reuse-level=0 / analysis-load-reuse-level=0 / scale-factor=0 / refine-intra=0 / refine-inter=0 / refine-mv=1 / refine-ctu-distortion=0 / no-limit-sao / ctu-info=0 / no-lowpass-dct / refine-analysis-type=0 / copy-pic=1 / max-ausize-factor=1.0 / no-dynamic-refine / no-single-sei / no-hevc-aq / no-svt / no-field / qp-adaptation-range=1.00 / scenecut-aware-qp=0conformance-window-offsets / right=0 / bottom=0 / NTMzNTQ= / decoder-max-rate=0 / no-vbv-live-multi-pass
  33. Default                                  : Yes
  34. Forced                                   : No
  35. Color range                              : Limited
  36. Color primaries                          : BT.709
  37. Transfer characteristics                 : BT.709
  38. Matrix coefficients                      : BT.709
  39. Audio
  40. ID                                       : 2
  41. Format                                   : E-AC-3
  42. Format/Info                              : Enhanced AC-3
  43. Commercial name                          : Dolby Digital Plus
  44. Codec ID                                 : A_EAC3
  45. Duration                                 : 2 h 1 min
  46. Bit rate mode                            : Constant
  47. Bit rate                                 : 1 024 kb/s
  48. Channel(s)                               : 6 channels
  49. Channel layout                           : L R C LFE Ls Rs
  50. Sampling rate                            : 48.0 kHz
  51. Frame rate                               : 31.250 FPS (1536 SPF)
  52. Compression mode                         : Lossy
  53. Stream size                              : 887 MiB (11%)
  54. Language                                 : Korean
  55. Service kind                             : Complete Main
  56. Default                                  : Yes
  57. Forced                                   : No
  58. Text
  59. ID                                       : 3
  60. ID in the original source medium         : 4610 (0x1202)
  61. Format                                   : PGS
  62. Muxing mode                              : zlib
  63. Codec ID                                 : S_HDMV/PGS
  64. Codec ID/Info                            : Picture based subtitle format used on BDs/HD-DVDs
  65. Duration                                 : 1 h 52 min
  66. Bit rate                                 : 33.4 kb/s
  67. Count of elements                        : 1956
  68. Stream size                              : 26.8 MiB (0%)
  69. Title                                    : chs
  70. Language                                 : Chinese
  71. Default                                  : Yes
  72. Forced                                   : No
  73. Original source medium                   : Blu-ray
  74. Menu
  75. 00:00:00.000                             : Chapter01
  76. 00:10:04.041                             : Chapter02
  77. 00:20:20.541                             : Chapter03
  78. 00:30:50.750                             : Chapter04
  79. 00:37:58.375                             : Chapter05
  80. 00:49:29.208                             : Chapter06
  81. 01:00:11.916                             : Chapter07
  82. 01:11:29.041                             : Chapter08
  83. 01:20:40.750                             : Chapter09
  84. 01:31:29.416                             : Chapter10
  85. 01:40:21.416                             : Chapter11
  86. 01:50:03.041                             : Chapter12





此处一般会放置磁力链或种子下载链接,不过此链接需要注册会员才能看到,点击“立即注册”
磁力链下载【下载链接仅对注册会员开放,登陆后可见】
BT9527电影天堂 1、BT9527电影天堂提供的BT文件均来源于互联网抓取,只供网友学习交流、技术提升使用。
2、我们遵守BitTorrent点对点协议原则,任何版权问题请联系原资源发布商,我们不处理任何版权纠纷,谢谢!如有争议请联系邮箱:BT9527#hotmail.com(#换成@)
3、如果您发现某页面或地址有错误,请联系站长邮箱BT9527#hotmail.com(#换成@),我们会尽快处理。您的热心是对BT9527电影天堂最大的支持。
4、本站建议去正规影院观看电影以支持电影行业发展。
最新回复 (0)

你可以在 登录 or 注册 后,对此帖发表评论!

返回
发新帖