妈咪[简体字幕].Mommy.2014.BluRay.1080p.x265.10bit.DDP5.1-MiniHD 8.49GB

版主小s 5月前 341

✔资源类型:暂未分类   ✔电影年份:2014   ✔电影地区:其他   ✔电影分类:剧情

◎译  名 妈咪 / 亲爱妈咪(台) / 慈母多恶儿(港)
◎片  名 Mommy
◎年  代 2014
◎产  地 加拿大
◎类  别 剧情 / 家庭
◎语  言 法语
◎上映日期 2014-05-22(戛纳电影节) / 2014-10-08(法国)
◎IMDb链接 https://www.imdb.com/title/tt3612616/
◎豆瓣评分 8.2/10 (25466人评价)
◎豆瓣链接 https://movie.douban.com/subject/25745651/
◎片  长 139分钟
◎导  演 泽维尔·多兰 Xavier Dolan (id:1032111)
◎编  剧 泽维尔·多兰 Xavier Dolan (id:1032111)
◎演  员 安娜·多尔瓦尔 Anne Dorval (id:1041713)
       安托万-奥利弗·波尼安 Antoine-Olivier Pilon (id:1344177)
       苏珊娜·克莱蒙 Suzanne Clément (id:1280933)
       帕特里克·华德 Patrick Huard (id:1014390)
       Steven Chevrin Steven Chevrin (id:1350488)
       皮埃尔 - 伊夫·卡迪纳尔 Pierre-Yves Cardinal (id:1338806)
       凯瑟琳·布吕内 Catherine Brunet (id:1070335)
       泽维尔·多兰 Xavier Dolan (id:1032111)
       拉娜德雷 Lana Del Rey (id:1328587)
       鲁多维科?艾奥迪 Ludovico Einaudi (id:1037404)
       泽维尔·多兰 Xavier Dolan (id:1032111)
       泽维尔·多兰 Xavier Dolan (id:1032111)

◎简  介
  单亲妈妈戴安(安妮·杜尔瓦勒 Anne Dorval 饰)大大咧咧,抽烟喝酒满口脏话,有着一颗不服输的心。她独自抚养患有多动症、常做出暴力行为的儿子斯蒂夫(安托万-奥利弗·波尼安 Antoine-Olivier Pilon 饰),母子关系游走在爆炸的边缘。戴安担心斯蒂夫惹是生非,斯蒂夫迫切想表达对妈妈的爱。新邻居凯拉(苏珊娜·克莱蒙 Suzanne Clément 饰)适时出现,这位患有失语症的高中女教师充当了母子的缓冲阀,让三个人都开始看到平衡和希望。然而斯蒂夫以前暴力行为带来的后果正在发酵,戴安需要支付一大笔赔偿金。她决定出卖自己的幸福并且做出一个痛苦决定:将儿子送回医院接受治疗......                                       
                                    《妈咪》是加拿大年轻导演泽维尔·多兰执导的第五部剧情长片,与多兰五年前在戛纳导演双周单元惊艳亮相的处女作《我杀了我妈妈》构成对照,同样讲述单亲家庭中狂躁而又...

◎获奖情况 (共9项)
  第67届戛纳电影节 (2014)
  主竞赛单元 金棕榈奖(提名)
   └──泽维尔·多兰 (id:1032111)
  主竞赛单元 评审团奖
   └──泽维尔·多兰 (id:1032111)

  第30届美国独立精神奖 (2015)
  最佳国际电影(提名)
   └──泽维尔·多兰 (id:1032111)

  第13届华盛顿影评人协会奖 (2014)
  最佳外语片(提名)

  第27届芝加哥影评人协会奖 (2014)
  最佳外语片(提名)

  第18届美国在线影评人协会奖 (2014)
  最佳影片(提名)
  最佳女主角(提名)
   └──安娜·多尔瓦尔 (id:1041713)
  最佳女配角(提名)
   └──苏珊娜·克莱蒙 (id:1280933)
  最佳非英语片(提名)

  1. ##### MediaInfo ######
  2. General
  3. Unique ID                                : 325331624155081685788387313266023622923 (0xF4C0977872AFD7EAF76A6B1B6112690B)
  4. Complete name                            : Mommy.2014.BluRay.1080p.x265.10bit.DDP5.1-MiniHD.mkv
  5. Format                                   : Matroska
  6. Format version                           : Version 4
  7. File size                                : 8.49 GiB
  8. Duration                                 : 2 h 18 min
  9. Overall bit rate                         : 8 782 kb/s
  10. Encoded date                             : UTC 2022-06-15 04:14:57
  11. Writing application                      : mkvmerge v68.0.0 ('The Curtain') 64-bit
  12. Writing library                          : libebml v1.4.2 + libmatroska v1.6.4
  13. Video
  14. ID                                       : 1
  15. Format                                   : HEVC
  16. Format/Info                              : High Efficiency Video Coding
  17. Format profile                           : Main 10@L5@High
  18. Codec ID                                 : V_MPEGH/ISO/HEVC
  19. Duration                                 : 2 h 18 min
  20. Bit rate                                 : 7 720 kb/s
  21. Width                                    : 1 920 pixels
  22. Height                                   : 1 080 pixels
  23. Display aspect ratio                     : 16:9
  24. Frame rate mode                          : Constant
  25. Frame rate                               : 23.976 (24000/1001/53354) FPS
  26. Color space                              : YUV
  27. Chroma subsampling                       : 4:2:0
  28. Bit depth                                : 10 bits
  29. Bits/(Pixel*Frame)                       : 0.155
  30. Stream size                              : 7.46 GiB (88%)
  31. Writing library                          : x265 3.5+20-17839cc0d:[Windows][GCC 11.2.0][64 bit] 10bit
  32. Encoding settings                        : cpuid=533541111039 / frame-threads=5 / numa-pools=24,24 / wpp / no-pmode / no-pme / no-psnr / no-ssim / log-level=2 / input-csp=1 / input-res=1920x1080 / interlace=0 / total-frames=199028 / level-idc=0 / high-tier=1 / uhd-bd=0 / ref=5 / no-allow-non-conformance / no-repeat-headers / annexb / no-aud / no-eob / no-eos / no-hrd / info / hash=0 / no-temporal-layers / no-open-gop / min-keyint=23 / keyint=250 / gop-lookahead=0 / bframes=9 / b-adapt=2 / b-pyramid / bframe-bias=0 / rc-lookahead=60 / lookahead-slices=0 / NTMzNTQ=uuDQuD2mJt9fsCf / scenecut=40 / no-hist-scenecut / radl=0 / no-splice / no-intra-refresh / ctu=32 / min-cu-size=8 / no-rect / no-amp / max-tu-size=32 / tu-inter-depth=4 / tu-intra-depth=4 / limit-tu=0 / rdoq-level=2 / dynamic-rd=0.00 / no-ssim-rd / signhide / no-tskip / nr-intra=0 / nr-inter=0 / no-constrained-intra / no-strong-intra-smoothing / max-merge=5 / limit-refs=0 / no-limit-modes / me=3 / subme=5 / merange=57 / temporal-mvp / no-frame-dup / no-hme / weightp / weightb / no-analyze-src-pics / deblock=-1:-1 / no-sao / no-sao-non-deblock / rd=4 / selective-sao=0 / no-early-skip / no-rskip / no-fast-intra / no-tskip-fast / no-cu-lossless / b-intra / no-splitrd-skip / rdpenalty=0 / psy-rd=2.00 / psy-rdoq=5.00 / no-rd-refine / no-lossless / cbqpoffs=0 / crqpoffs=0 / rc=crf / crf=20.5 / qcomp=0.70 / qpstep=4 / stats-write=0 / stats-read=0 / vbv-maxrate=100000 / vbv-bufsize=100000 / vbv-init=0.9 / min-vbv-fullness=50.0 / max-vbv-fullness=80.0 / crf-max=0.0 / crf-min=0.0 / ipratio=1.40 / pbratio=1.30 / aq-mode=1 / aq-strength=0.90 / no-cutree / zone-count=0 / no-strict-cbr / qg-size=32 / no-rc-grain / qpmax=69 / qpmin=0 / no-const-vbv / sar=0 / overscan=0 / videoformat=5 / range=0 / colorprim=1 / transfer=1 / colormatrix=1 / chromaloc=0 / display-window=0 / cll=0,0 / min-luma=0 / max-luma=1023 / log2-max-poc-lsb=8 / vui-timing-info / vui-hrd-info / slices=1 / no-opt-qp-pps / no-opt-ref-list-length-pps / no-multi-pass-opt-rps / scenecut-bias=0.05 / hist-threshold=0.03 / no-opt-cu-delta-qp / no-aq-motion / no-hdr10 / no-hdr10-opt / no-dhdr10-opt / no-idr-recovery-sei / analysis-reuse-level=0 / analysis-save-reuse-level=0 / analysis-load-reuse-level=0 / scale-factor=0 / refine-intra=0 / refine-inter=0 / refine-mv=1 / refine-ctu-distortion=0 / no-limit-sao / ctu-info=0 / no-lowpass-dct / refine-analysis-type=0 / copy-pic=1 / max-ausize-factor=1.0 / no-dynamic-refine / no-single-sei / no-hevc-aq / no-svt / no-field / qp-adaptation-range=1.00 / scenecut-aware-qp=0conformance-window-offsets / right=0 / bottom=0 / NTMzNTQ= / decoder-max-rate=0 / no-vbv-live-multi-pass
  33. Default                                  : Yes
  34. Forced                                   : No
  35. Color range                              : Limited
  36. Color primaries                          : BT.709
  37. Transfer characteristics                 : BT.709
  38. Matrix coefficients                      : BT.709
  39. Audio
  40. ID                                       : 2
  41. Format                                   : E-AC-3
  42. Format/Info                              : Enhanced AC-3
  43. Commercial name                          : Dolby Digital Plus
  44. Codec ID                                 : A_EAC3
  45. Duration                                 : 2 h 18 min
  46. Bit rate mode                            : Constant
  47. Bit rate                                 : 1 024 kb/s
  48. Channel(s)                               : 6 channels
  49. Channel layout                           : L R C LFE Ls Rs
  50. Sampling rate                            : 48.0 kHz
  51. Frame rate                               : 31.250 FPS (1536 SPF)
  52. Compression mode                         : Lossy
  53. Stream size                              : 1 013 MiB (12%)
  54. Language                                 : French
  55. Service kind                             : Complete Main
  56. Default                                  : Yes
  57. Forced                                   : No
  58. Text #1
  59. ID                                       : 3
  60. ID in the original source medium         : 4610 (0x1202)
  61. Format                                   : PGS
  62. Muxing mode                              : zlib
  63. Codec ID                                 : S_HDMV/PGS
  64. Codec ID/Info                            : Picture based subtitle format used on BDs/HD-DVDs
  65. Duration                                 : 2 h 17 min
  66. Bit rate                                 : 33.3 kb/s
  67. Count of elements                        : 3562
  68. Stream size                              : 32.7 MiB (0%)
  69. Title                                    : chs
  70. Language                                 : Chinese
  71. Default                                  : Yes
  72. Forced                                   : No
  73. Original source medium                   : Blu-ray
  74. Text #2
  75. ID                                       : 4
  76. ID in the original source medium         : 4608 (0x1200)
  77. Format                                   : PGS
  78. Muxing mode                              : zlib
  79. Codec ID                                 : S_HDMV/PGS
  80. Codec ID/Info                            : Picture based subtitle format used on BDs/HD-DVDs
  81. Duration                                 : 2 h 18 min
  82. Bit rate                                 : 51.9 kb/s
  83. Count of elements                        : 4660
  84. Stream size                              : 51.3 MiB (1%)
  85. Language                                 : French
  86. Default                                  : No
  87. Forced                                   : No
  88. Original source medium                   : Blu-ray
  89. Menu
  90. 00:00:00.000                             : en:Chapter01
  91. 00:02:50.170                             : en:Chapter02
  92. 00:04:13.962                             : en:Chapter03
  93. 00:09:22.311                             : en:Chapter04
  94. 00:13:22.384                             : en:Chapter05
  95. 00:16:05.297                             : en:Chapter06
  96. 00:19:33.964                             : en:Chapter07
  97. 00:22:44.780                             : en:Chapter08
  98. 00:25:55.136                             : en:Chapter09
  99. 00:28:26.121                             : en:Chapter10
  100. 00:36:37.153                             : en:Chapter11
  101. 00:41:16.223                             : en:Chapter12
  102. 00:44:18.030                             : en:Chapter13
  103. 00:51:43.308                             : en:Chapter14
  104. 00:59:31.484                             : en:Chapter15
  105. 01:03:03.154                             : en:Chapter16
  106. 01:06:26.691                             : en:Chapter17
  107. 01:12:08.907                             : en:Chapter18
  108. 01:15:07.586                             : en:Chapter19
  109. 01:20:45.674                             : en:Chapter20
  110. 01:23:54.404                             : en:Chapter21
  111. 01:26:27.390                             : en:Chapter22
  112. 01:32:46.143                             : en:Chapter23
  113. 01:35:37.648                             : en:Chapter24
  114. 01:39:01.936                             : en:Chapter25
  115. 01:44:20.671                             : en:Chapter26
  116. 01:48:41.598                             : en:Chapter27
  117. 01:53:16.790                             : en:Chapter28
  118. 02:00:12.205                             : en:Chapter29
  119. 02:04:43.976                             : en:Chapter30
  120. 02:13:10.983                             : en:Chapter31





此处一般会放置磁力链或种子下载链接,不过此链接需要注册会员才能看到,点击“立即注册”
磁力链下载【下载链接仅对注册会员开放,登陆后可见】
BT9527电影天堂 1、BT9527电影天堂提供的BT文件均来源于互联网抓取,只供网友学习交流、技术提升使用。
2、我们遵守BitTorrent点对点协议原则,任何版权问题请联系原资源发布商,我们不处理任何版权纠纷,谢谢!如有争议请联系邮箱:BT9527#hotmail.com(#换成@)
3、如果您发现某页面或地址有错误,请联系站长邮箱BT9527#hotmail.com(#换成@),我们会尽快处理。您的热心是对BT9527电影天堂最大的支持。
4、本站建议去正规影院观看电影以支持电影行业发展。
最新回复 (0)

你可以在 登录 or 注册 后,对此帖发表评论!

返回
发新帖