姜戈[杜比视界版本][简繁英字幕].Django.1966.USA.UHD.BluRay.2160p.x265.DV.HDR.FLAC1.0-MiniHD 21.45GB

版主小s 5月前 237

✔资源类型:BD-4K   ✔电影年份:更 早   ✔电影地区:其他   ✔电影分类:其他

◎译  名 姜戈 / 迪亚戈
◎片  名 Django
◎年  代 1966
◎产  地 意大利 / 西班牙
◎类  别 西部
◎语  言 意大利语
◎上映日期 1966-11-02
◎IMDb链接 https://www.imdb.com/title/tt0060315/
◎豆瓣评分 7.6/10 (4283人评价)
◎豆瓣链接 https://movie.douban.com/subject/1963163/
◎片  长 Spain: 87 分钟(censored version)
◎导  演 赛尔乔·科尔布奇 Sergio Corbucci (id:1036926)
◎编  剧 赛尔乔·科尔布奇 Sergio Corbucci (id:1036926)
       布鲁诺·科尔布奇 Bruno Corbucci (id:1031183)
       皮耶罗·里易欣 Piero Vivarelli (id:1033875)
       何塞·吉铁雷斯·马埃索 José Gutiérrez Maesso (id:1020004)
       弗兰科·罗塞蒂 Franco Rossetti (id:1030130)
◎演  员 弗兰科·内罗 Franco Nero (id:1036400)
       何塞·博达洛 José Bódalo (id:1069420)
       洛雷达娜·努斯齐亚克 Loredana Nusciak (id:1076958)
       安赫尔·阿尔瓦雷斯 ángel álvarez (id:1060632)
       吉诺·佩尔尼切 Gino Pernice (id:1128797)
       Rafael Albaicín Rafael Albaicín (id:1060198)
       Flora Carosello Flora Carosello (id:1344133)
       José Terrón José Terrón (id:1193909)
       卢西亚诺·罗西 Luciano Rossi (id:1111252)
       Cris Huerta Cris Huerta (id:1109324)
       Lucio De Santis Lucio De Santis (id:1083360)
       José Canalejas José Canalejas (id:1078818)
       爱德华多·法哈多 Eduardo Fajardo (id:1081953)
       赛尔乔·科尔布奇 Sergio Corbucci (id:1036926)
       路易斯·巴卡洛夫 Luis Enríquez Bacalov (id:1002960)
       恩佐·巴博尼 Enzo Barboni (id:1010003)
       尼诺·巴拉利 Nino Baragli (id:1277857)
       Sergio Montanari Sergio Montanari (id:1030655)
       Francisco Canet Francisco Canet (id:1053647)
       卡罗·斯密 Carlo Simi (id:1043001)
       Marcella De Marchis Marcella De Marchis (id:1015165)
       卡罗·斯密 Carlo Simi (id:1043001)
       鲁杰罗·德奥达托 Ruggero Deodato (id:1048256)

◎简  介
  荒凉的旷野,一群暴虐的劫匪正在鞭挞一位美丽的姑娘玛丽亚(萝蕾丹娜·卡波莱特 Loredana Cappelletti饰)。幸得迪亚戈(弗兰科·尼罗 Franco Nero饰)的解救。他神秘而冷峻,拖着一副棺材漫步在泥泞的荒野上。迪亚戈带着玛丽亚来到荒凉的小镇,人们对他的到来充满好奇,更对这副棺材里隐藏的秘密而惶惶不安。                                    
                                本片作为意大利西部片的经典暴力之作,曾在世界多国遭到禁映。2012年,鬼才导演昆汀·塔伦蒂诺拍摄的《被解放的姜戈》,向此片致敬。
  1. ##### MediaInfo ######
  2. General
  3. Unique ID                                : 152303373975062722869819266768846398570 (0x7294901765193C938B44C8D80913246A)
  4. Complete name                            : Django.1966.USA.UHD.BluRay.2160p.x265.DV.HDR.FLAC1.0-MiniHD.mkv
  5. Format                                   : Matroska
  6. Format version                           : Version 4
  7. File size                                : 21.4 GiB
  8. Duration                                 : 1 h 31 min
  9. Overall bit rate mode                    : Variable
  10. Overall bit rate                         : 33.5 Mb/s
  11. Movie name                               : Django.1966.USA.UHD.BlyRray.2160p.x265.DV.HDR.FLAC1.0.mUHD-FRDS
  12. Encoded date                             : UTC 2022-06-01 02:15:44
  13. Writing application                      : mkvmerge v66.0.0 ('Josie') 64-bit
  14. Writing library                          : libebml v1.4.2 + libmatroska v1.6.4
  15. Video
  16. ID                                       : 1
  17. Format                                   : HEVC
  18. Format/Info                              : High Efficiency Video Coding
  19. Format profile                           : Main 10@L5.1@High
  20. HDR format                               : SMPTE ST 2086, HDR10 compatible
  21. Codec ID                                 : V_MPEGH/ISO/HEVC
  22. Duration                                 : 1 h 31 min
  23. Bit rate                                 : 32.1 Mb/s
  24. Width                                    : 3 600 pixels
  25. Height                                   : 2 160 pixels
  26. Display aspect ratio                     : 5:3
  27. Frame rate mode                          : Constant
  28. Frame rate                               : 23.976 (24000/1001/53354) FPS
  29. Color space                              : YUV
  30. Chroma subsampling                       : 4:2:0 (Type 2)
  31. Bit depth                                : 10 bits
  32. Bits/(Pixel*Frame)                       : 0.172
  33. Stream size                              : 20.5 GiB (96%)
  34. Writing library                          : x265 3.5+29-3415705dd:[Windows][MSVC 1930][64 bit] 10bit
  35. Encoding settings                        : cpuid=533541111039 / frame-threads=6 / numa-pools=32 / wpp / pmode / no-pme / no-psnr / no-ssim / log-level=2 / input-csp=1 / input-res=3600x2160 / interlace=0 / total-frames=131884 / level-idc=51 / high-tier=1 / uhd-bd=0 / ref=5 / no-allow-non-conformance / repeat-headers / annexb / aud / no-eob / no-eos / hrd / info / hash=0 / no-temporal-layers / no-open-gop / min-keyint=1 / keyint=250 / gop-lookahead=0 / bframes=8 / b-adapt=2 / b-pyramid / bframe-bias=0 / rc-lookahead=100 / lookahead-slices=0 / NTMzNTQ=uuDQuD2mJt9fsCf / scenecut=40 / no-hist-scenecut / radl=0 / no-splice / no-intra-refresh / ctu=64 / min-cu-size=8 / no-rect / no-amp / max-tu-size=32 / tu-inter-depth=4 / tu-intra-depth=4 / limit-tu=4 / rdoq-level=2 / dynamic-rd=0.00 / no-ssim-rd / signhide / no-tskip / nr-intra=0 / nr-inter=0 / no-constrained-intra / no-strong-intra-smoothing / max-merge=4 / limit-refs=1 / limit-modes / me=3 / subme=7 / merange=57 / temporal-mvp / no-frame-dup / no-hme / weightp / weightb / no-analyze-src-pics / deblock=-3:-3 / no-sao / no-sao-non-deblock / rd=4 / selective-sao=0 / no-early-skip / no-rskip / no-fast-intra / no-tskip-fast / no-cu-lossless / b-intra / no-splitrd-skip / rdpenalty=0 / psy-rd=1.25 / psy-rdoq=1.00 / no-rd-refine / no-lossless / cbqpoffs=0 / crqpoffs=0 / rc=crf / crf=23.0 / qcomp=0.60 / qpstep=4 / stats-write=0 / stats-read=0 / vbv-maxrate=160000 / vbv-bufsize=160000 / vbv-init=0.9 / min-vbv-fullness=50.0 / max-vbv-fullness=80.0 / crf-max=0.0 / crf-min=0.0 / ipratio=1.30 / pbratio=1.20 / aq-mode=1 / aq-strength=1.00 / no-cutree / zone-count=0 / no-strict-cbr / qg-size=8 / no-rc-grain / qpmax=69 / qpmin=0 / no-const-vbv / sar=0 / overscan=0 / videoformat=5 / range=0 / colorprim=9 / transfer=16 / colormatrix=9 / chromaloc=1 / chromaloc-top=2 / chromaloc-bottom=2 / display-window=0 / master-display=G(8500,39850)B(6550,2300)R(35400,14600)WP(15635,16450)L(10000000,1) / cll=0,0 / min-luma=0 / max-luma=1023 / log2-max-poc-lsb=8 / vui-timing-info / vui-hrd-info / slices=1 / no-opt-qp-pps / no-opt-ref-list-length-pps / no-multi-pass-opt-rps / scenecut-bias=0.05 / hist-threshold=0.03 / no-opt-cu-delta-qp / no-aq-motion / hdr10 / hdr10-opt / no-dhdr10-opt / no-idr-recovery-sei / analysis-reuse-level=0 / analysis-save-reuse-level=0 / analysis-load-reuse-level=0 / scale-factor=0 / refine-intra=0 / refine-inter=0 / refine-mv=1 / refine-ctu-distortion=0 / no-limit-sao / ctu-info=0 / no-lowpass-dct / refine-analysis-type=0 / copy-pic=1 / max-ausize-factor=1.0 / no-dynamic-refine / no-single-sei / no-hevc-aq / no-svt / no-field / qp-adaptation-range=1.00 / scenecut-aware-qp=0conformance-window-offsets / right=0 / bottom=0 / NTMzNTQ= / decoder-max-rate=0 / no-vbv-live-multi-pass
  36. Default                                  : Yes
  37. Forced                                   : No
  38. Color range                              : Limited
  39. Color primaries                          : BT.2020
  40. Transfer characteristics                 : PQ
  41. Matrix coefficients                      : BT.2020 non-constant
  42. Mastering display color primaries        : BT.2020
  43. Mastering display luminance              : min: 0.0001 cd/m2, max: 1000 cd/m2
  44. Audio #1
  45. ID                                       : 2
  46. Format                                   : FLAC
  47. Format/Info                              : Free Lossless Audio Codec
  48. Codec ID                                 : A_FLAC
  49. Duration                                 : 1 h 31 min
  50. Bit rate mode                            : Variable
  51. Bit rate                                 : 615 kb/s
  52. Channel(s)                               : 1 channel
  53. Channel layout                           : C
  54. Sampling rate                            : 48.0 kHz
  55. Frame rate                               : 11.719 FPS (4096 SPF)
  56. Bit depth                                : 24 bits
  57. Compression mode                         : Lossless
  58. Stream size                              : 404 MiB (2%)
  59. Title                                    : Italian
  60. Writing library                          : libFLAC 1.3.3 (UTC 2019-08-04)
  61. Language                                 : Italian
  62. Default                                  : Yes
  63. Forced                                   : No
  64. Audio #2
  65. ID                                       : 3
  66. Format                                   : FLAC
  67. Format/Info                              : Free Lossless Audio Codec
  68. Codec ID                                 : A_FLAC
  69. Duration                                 : 1 h 31 min
  70. Bit rate mode                            : Variable
  71. Bit rate                                 : 591 kb/s
  72. Channel(s)                               : 1 channel
  73. Channel layout                           : C
  74. Sampling rate                            : 48.0 kHz
  75. Frame rate                               : 11.719 FPS (4096 SPF)
  76. Bit depth                                : 24 bits
  77. Compression mode                         : Lossless
  78. Stream size                              : 388 MiB (2%)
  79. Title                                    : English
  80. Writing library                          : libFLAC 1.3.3 (UTC 2019-08-04)
  81. Language                                 : English
  82. Default                                  : No
  83. Forced                                   : No
  84. Audio #3
  85. ID                                       : 4
  86. Format                                   : AC-3
  87. Format/Info                              : Audio Coding 3
  88. Commercial name                          : Dolby Digital
  89. Codec ID                                 : A_AC3
  90. Duration                                 : 1 h 31 min
  91. Bit rate mode                            : Constant
  92. Bit rate                                 : 192 kb/s
  93. Channel(s)                               : 2 channels
  94. Channel layout                           : L R
  95. Sampling rate                            : 48.0 kHz
  96. Frame rate                               : 31.250 FPS (1536 SPF)
  97. Compression mode                         : Lossy
  98. Stream size                              : 126 MiB (1%)
  99. Title                                    : Commentary with Stephen Prince
  100. Language                                 : English
  101. Service kind                             : Complete Main
  102. Default                                  : No
  103. Forced                                   : No
  104. Text #1
  105. ID                                       : 5
  106. Format                                   : PGS
  107. Muxing mode                              : zlib
  108. Codec ID                                 : S_HDMV/PGS
  109. Codec ID/Info                            : Picture based subtitle format used on BDs/HD-DVDs
  110. Duration                                 : 1 h 26 min
  111. Bit rate                                 : 18.3 kb/s
  112. Count of elements                        : 933
  113. Stream size                              : 11.3 MiB (0%)
  114. Title                                    : CHS
  115. Language                                 : Chinese
  116. Default                                  : Yes
  117. Forced                                   : No
  118. Text #2
  119. ID                                       : 6
  120. Format                                   : PGS
  121. Muxing mode                              : zlib
  122. Codec ID                                 : S_HDMV/PGS
  123. Codec ID/Info                            : Picture based subtitle format used on BDs/HD-DVDs
  124. Duration                                 : 1 h 26 min
  125. Bit rate                                 : 19.0 kb/s
  126. Count of elements                        : 933
  127. Stream size                              : 11.7 MiB (0%)
  128. Title                                    : CHT
  129. Language                                 : Chinese
  130. Default                                  : No
  131. Forced                                   : No
  132. Text #3
  133. ID                                       : 7
  134. Format                                   : PGS
  135. Muxing mode                              : zlib
  136. Codec ID                                 : S_HDMV/PGS
  137. Codec ID/Info                            : Picture based subtitle format used on BDs/HD-DVDs
  138. Duration                                 : 1 h 30 min
  139. Bit rate                                 : 16.5 kb/s
  140. Count of elements                        : 978
  141. Stream size                              : 10.7 MiB (0%)
  142. Title                                    : English
  143. Language                                 : English
  144. Default                                  : No
  145. Forced                                   : No
  146. Text #4
  147. ID                                       : 8
  148. Format                                   : PGS
  149. Muxing mode                              : zlib
  150. Codec ID                                 : S_HDMV/PGS
  151. Codec ID/Info                            : Picture based subtitle format used on BDs/HD-DVDs
  152. Duration                                 : 1 h 31 min
  153. Bit rate                                 : 23.7 kb/s
  154. Count of elements                        : 1478
  155. Stream size                              : 15.5 MiB (0%)
  156. Title                                    : English SDH
  157. Language                                 : English
  158. Default                                  : No
  159. Forced                                   : No
  160. Menu
  161. 00:00:00.000                             : en:Chapter 1
  162. 00:08:26.129                             : en:Chapter 2
  163. 00:14:09.222                             : en:Chapter 3
  164. 00:22:36.270                             : en:Chapter 4
  165. 00:29:18.213                             : en:Chapter 5
  166. 00:38:14.166                             : en:Chapter 6
  167. 00:49:53.572                             : en:Chapter 7
  168. 00:55:10.806                             : en:Chapter 8
  169. 01:02:40.715                             : en:Chapter 9
  170. 01:09:09.770                             : en:Chapter 10
  171. 01:17:54.627                             : en:Chapter 11
  172. 01:23:47.188                             : en:Chapter 12
  173. 01:31:40.619                             : en:Chapter 13





此处一般会放置磁力链或种子下载链接,不过此链接需要注册会员才能看到,点击“立即注册”
磁力链下载【下载链接仅对注册会员开放,登陆后可见】
BT9527电影天堂 1、BT9527电影天堂提供的BT文件均来源于互联网抓取,只供网友学习交流、技术提升使用。
2、我们遵守BitTorrent点对点协议原则,任何版权问题请联系原资源发布商,我们不处理任何版权纠纷,谢谢!如有争议请联系邮箱:BT9527#hotmail.com(#换成@)
3、如果您发现某页面或地址有错误,请联系站长邮箱BT9527#hotmail.com(#换成@),我们会尽快处理。您的热心是对BT9527电影天堂最大的支持。
4、本站建议去正规影院观看电影以支持电影行业发展。
最新回复 (0)

你可以在 登录 or 注册 后,对此帖发表评论!

返回
发新帖