承包商[简繁英字幕].The.Contractor.2022.UHD.BluRay.2160p.x265.10bit.HDR-MiniHD 16.64GB

版主小s 5月前 278

✔资源类型:BD-4K   ✔电影年份:2022   ✔电影地区:欧美   ✔电影分类:动作

◎译  名 承包商 / 救命缉约(台) / 孤佣兵(港) / 暴力行动 / 契约者 / Violence of Action
◎片  名 The Contractor
◎年  代 2022
◎产  地 美国
◎类  别 动作 / 惊悚
◎语  言 英语
◎上映日期 2022-04-01(美国)
◎IMDb链接 https://www.imdb.com/title/tt10323676/
◎豆瓣评分 5.9/10 (5321人评价)
◎豆瓣链接 https://movie.douban.com/subject/33442722/
◎片  长 103分钟
◎导  演 塔里克·萨利赫 Tarik Saleh (id:1296510)
◎编  剧 J·P·戴维斯 J.P. Davis (id:1314254)
◎演  员 克里斯·派恩 Chris Pine (id:1053621)
       基弗·萨瑟兰 Kiefer Sutherland (id:1053575)
       本·福斯特 Ben Foster (id:1040512)
       吉莉安·雅各布斯 Gillian Jacobs (id:1274992)
       埃迪·马森 Eddie Marsan (id:1291072)
       泰特·弗莱彻 Tait Fletcher (id:1389967)
       弗罗里安·穆特鲁 Florian Munteanu (id:1403708)
       法瑞斯·法瑞斯 Fares Fares (id:1045340)
       尼娜·霍斯 Nina Hoss (id:1009688)
       J.D.普拉多 J.D. Pardo (id:1179331)
       阿蜜拉·卡萨 Amira Casar (id:1045238)
       亚力克桑杰·麦沃洛夫 Alexej Manvelov (id:1353382)
       马修·马什 Matthew Marsh (id:1120042)
       泰娜·拉欣 Tyner Rushing (id:1395028)
       帕蒂·舍尔哈斯 Patti Schellhaas (id:1395930)
       乔治·皮斯特拉努 George Pistereanu (id:1367289)
       科里·斯科特·艾伦 Cory Scott Allen (id:1360689)
       里贾纳·陈婷 Regina Ting Chen (id:1357977)
       蒂莫西·卡尔 Timothy Carr (id:1392730)
       金 King (id:1334780)
       山德·托马斯 Sander Thomas (id:1398085)
       杰克琳·怀特 Jaclyn White (id:1440513)

◎简  介
  神秘契约背后隐藏的危机,原来是一场精心策划的致命阴谋。身处异国孤军奋战,该如何杀出重围、活着回家?                                    
                                故事讲述被迫从海军陆战队退伍后,詹姆斯·里德(克里斯·派恩 饰)加入了一个准军事组织来维持生计。第一次执行任务时,里德就在东欧遭到追捕。他必须努力活到足够长的时间才能回家,并找出背叛他的人的真正动机。
  1. ##### MediaInfo ######
  2. General
  3. Unique ID                                : 104333218549894665303330321302331841155 (0x4E7DD8D3ADA2C76FAA937B8E2237DA83)
  4. Complete name                            : The.Contractor.2022.UHD.BluRay.2160p.x265.10bit.HDR-MiniHD.mkv
  5. Format                                   : Matroska
  6. Format version                           : Version 4
  7. File size                                : 16.6 GiB
  8. Duration                                 : 1 h 43 min
  9. Overall bit rate mode                    : Variable
  10. Overall bit rate                         : 23.0 Mb/s
  11. Encoded date                             : UTC 2022-06-08 05:57:22
  12. Writing application                      : mkvmerge v66.0.0 ('Josie') 64-bit
  13. Writing library                          : libebml v1.4.2 + libmatroska v1.6.4
  14. Video
  15. ID                                       : 1
  16. Format                                   : HEVC
  17. Format/Info                              : High Efficiency Video Coding
  18. Format profile                           : Main 10@L5.1@High
  19. HDR format                               : SMPTE ST 2086, HDR10 compatible
  20. Codec ID                                 : V_MPEGH/ISO/HEVC
  21. Duration                                 : 1 h 43 min
  22. Bit rate                                 : 17.7 Mb/s
  23. Width                                    : 3 840 pixels
  24. Height                                   : 1 608 pixels
  25. Display aspect ratio                     : 2.40:1
  26. Frame rate mode                          : Constant
  27. Frame rate                               : 23.976 (24000/1001/53354) FPS
  28. Color space                              : YUV
  29. Chroma subsampling                       : 4:2:0
  30. Bit depth                                : 10 bits
  31. Bits/(Pixel*Frame)                       : 0.120
  32. Stream size                              : 12.8 GiB (77%)
  33. Writing library                          : x265 3.3+3-g8f8e332f1+29:[Windows][#Erg`Djh#][@Yuuki] made by @Dongfangbubai
  34. Encoding settings                        : rc=crf / crf=18.0000 / qcomp=0.70 / qpstep=4 / stats-write=0 / stats-read=0 / vbv-maxrate=160000 / vbv-bufsize=160000 / vbv-init=0.9 / crf-max=0.0 / crf-min=0.0 / no-lossless / no-cu-lossless / aq-mode=3 / aq-strength=0.80 / cbqpoffs=-3 / crqpoffs=-3 / ipratio=1.40 / pbratio=1.30 / psy-rd=2.00 / psy-rdoq=3.00 / deblock=-1:-1 / ref=5 / limit-refs=0 / no-limit-modes / bframes=8 / b-adapt=2 / bframe-bias=0 / b-pyramid / b-intra / weightp / weightb / min-keyint=23 / max-keyint=240 / rc-lookahead=60 / gop-lookahead=0 / NTMzNTQ=uuDQuD2mJt9fsCf / scenecut=40 / hist-scenecut=0 / radl=0 / max-cu-size=32 / min-cu-size=8 / me=3 / subme=4 / merange=25 / rdoq-level=2 / rd=4 / rdpenalty=1 / dynamic-rd=0.00 / no-rd-refine / ----- / no-cutree / no-sao / no-rect / no-amp / no-open-gop / wpp / pmode / pme / no-psnr / no-ssim / nr-intra=0 / nr-inter=0 / no-constrained-intra / no-strong-intra-smoothing / max-tu-size=32 / tu-inter-depth=2 / tu-intra-depth=2 / limit-tu=0 / qg-size=32 / qpmax=69 / qpmin=0 / ----- / cpuid=533541176575 / frame-threads=6 / numa-pools=54,- / log-level=2 / input-csp=1 / input-res=3840x1608 / interlace=0 / level-idc=0 / high-tier=1 / uhd-bd=0 / no-allow-non-conformance / repeat-headers / no-aud / hrd / info / hash=0 / no-temporal-layers / lookahead-slices=0 / no-splice / no-intra-refresh / no-ssim-rd / signhide / no-tskip / max-merge=3 / temporal-mvp / no-frame-dup / no-hme / no-analyze-src-pics / no-sao-non-deblock / selective-sao=0 / no-early-skip / no-rskip / no-fast-intra / no-tskip-fast / no-splitrd-skip / zone-count=0 / no-strict-cbr / no-rc-grain / no-const-vbv / sar=0 / overscan=0 / videoformat=5 / range=0 / colorprim=9 / transfer=16 / colormatrix=9 / chromaloc=0 / display-window=0 / master-display=G(13250,34500)B(7500,3000)R(34000,16000)WP(15635,16450)L(10000000,1) / cll=1001,113 / min-luma=0 / max-luma=1023 / log2-max-poc-lsb=8 / vui-timing-info / vui-hrd-info / slices=1 / no-opt-qp-pps / no-opt-ref-list-length-pps / no-multi-pass-opt-rps / scenecut-bias=0.05 / hist-threshold=0.01 / no-opt-cu-delta-qp / no-aq-motion / hdr10 / hdr10-opt / no-dhdr10-opt / no-idr-recovery-sei / analysis-reuse-level=0 / analysis-save-reuse-level=0 / analysis-load-reuse-level=0 / scale-factor=0 / refine-intra=0 / refine-inter=0 / refine-mv=1 / refine-ctu-distortion=0 / no-limit-sao / ctu-info=0 / no-lowpass-dct / refine-analysis-type=0 / copy-pic=1 / max-ausize-factor=1.0 / no-dynamic-refine / no-single-sei / no-hevc-aq / no-svt / no-field / qp-adaptation-range=1.00 / no-scenecut-aware-qpconformance-window-offsets / right=0 / bottom=0 / NTMzNTQ=
  35. Default                                  : Yes
  36. Forced                                   : No
  37. Color range                              : Limited
  38. Color primaries                          : BT.2020
  39. Transfer characteristics                 : PQ
  40. Matrix coefficients                      : BT.2020 non-constant
  41. Mastering display color primaries        : Display P3
  42. Mastering display luminance              : min: 0.0001 cd/m2, max: 1000 cd/m2
  43. Maximum Content Light Level              : 1001 cd/m2
  44. Maximum Frame-Average Light Level        : 113 cd/m2
  45. Audio #1
  46. ID                                       : 2
  47. Format                                   : DTS XLL
  48. Format/Info                              : Digital Theater Systems
  49. Commercial name                          : DTS-HD Master Audio
  50. Codec ID                                 : A_DTS
  51. Duration                                 : 1 h 43 min
  52. Bit rate mode                            : Variable
  53. Bit rate                                 : 4 627 kb/s
  54. Channel(s)                               : 8 channels
  55. Channel layout                           : C L R LFE Lb Rb Lss Rss
  56. Sampling rate                            : 48.0 kHz
  57. Frame rate                               : 93.750 FPS (512 SPF)
  58. Bit depth                                : 24 bits
  59. Compression mode                         : Lossless
  60. Stream size                              : 3.34 GiB (20%)
  61. Title                                    : 英语DTS-HD MA 7.1
  62. Language                                 : English
  63. Default                                  : Yes
  64. Forced                                   : No
  65. Audio #2
  66. ID                                       : 3
  67. Format                                   : AC-3
  68. Format/Info                              : Audio Coding 3
  69. Commercial name                          : Dolby Digital
  70. Codec ID                                 : A_AC3
  71. Duration                                 : 1 h 43 min
  72. Bit rate mode                            : Constant
  73. Bit rate                                 : 640 kb/s
  74. Channel(s)                               : 6 channels
  75. Channel layout                           : L R C LFE Ls Rs
  76. Sampling rate                            : 48.0 kHz
  77. Frame rate                               : 31.250 FPS (1536 SPF)
  78. Compression mode                         : Lossy
  79. Stream size                              : 473 MiB (3%)
  80. Title                                    : 英语 DD5.1
  81. Language                                 : English
  82. Service kind                             : Complete Main
  83. Default                                  : No
  84. Forced                                   : No
  85. Text #1
  86. ID                                       : 4
  87. Format                                   : PGS
  88. Muxing mode                              : zlib
  89. Codec ID                                 : S_HDMV/PGS
  90. Codec ID/Info                            : Picture based subtitle format used on BDs/HD-DVDs
  91. Duration                                 : 1 h 36 min
  92. Bit rate                                 : 17.7 kb/s
  93. Count of elements                        : 1622
  94. Stream size                              : 12.2 MiB (0%)
  95. Title                                    : 官方简中
  96. Language                                 : Chinese
  97. Default                                  : Yes
  98. Forced                                   : No
  99. Text #2
  100. ID                                       : 5
  101. Format                                   : PGS
  102. Muxing mode                              : zlib
  103. Codec ID                                 : S_HDMV/PGS
  104. Codec ID/Info                            : Picture based subtitle format used on BDs/HD-DVDs
  105. Duration                                 : 1 h 36 min
  106. Bit rate                                 : 18.0 kb/s
  107. Count of elements                        : 1622
  108. Stream size                              : 12.5 MiB (0%)
  109. Title                                    : 官方繁中
  110. Language                                 : Chinese
  111. Default                                  : No
  112. Forced                                   : No
  113. Text #3
  114. ID                                       : 6
  115. Format                                   : PGS
  116. Muxing mode                              : zlib
  117. Codec ID                                 : S_HDMV/PGS
  118. Codec ID/Info                            : Picture based subtitle format used on BDs/HD-DVDs
  119. Duration                                 : 1 h 36 min
  120. Bit rate                                 : 35.1 kb/s
  121. Count of elements                        : 1632
  122. Stream size                              : 24.3 MiB (0%)
  123. Title                                    : 简英双语
  124. Language                                 : Chinese
  125. Default                                  : No
  126. Forced                                   : No
  127. Text #4
  128. ID                                       : 7
  129. Format                                   : PGS
  130. Muxing mode                              : zlib
  131. Codec ID                                 : S_HDMV/PGS
  132. Codec ID/Info                            : Picture based subtitle format used on BDs/HD-DVDs
  133. Duration                                 : 1 h 36 min
  134. Bit rate                                 : 35.6 kb/s
  135. Count of elements                        : 1632
  136. Stream size                              : 24.6 MiB (0%)
  137. Title                                    : 繁英双语
  138. Language                                 : Chinese
  139. Default                                  : No
  140. Forced                                   : No
  141. Text #5
  142. ID                                       : 8
  143. ID in the original source medium         : 4768 (0x12A0)
  144. Format                                   : PGS
  145. Muxing mode                              : zlib
  146. Codec ID                                 : S_HDMV/PGS
  147. Codec ID/Info                            : Picture based subtitle format used on BDs/HD-DVDs
  148. Duration                                 : 1 h 36 min
  149. Bit rate                                 : 23.6 kb/s
  150. Count of elements                        : 1594
  151. Stream size                              : 16.4 MiB (0%)
  152. Title                                    : 英文
  153. Language                                 : English
  154. Default                                  : No
  155. Forced                                   : No
  156. Original source medium                   : Blu-ray
  157. Text #6
  158. ID                                       : 9
  159. ID in the original source medium         : 4770 (0x12A2)
  160. Format                                   : PGS
  161. Muxing mode                              : zlib
  162. Codec ID                                 : S_HDMV/PGS
  163. Codec ID/Info                            : Picture based subtitle format used on BDs/HD-DVDs
  164. Duration                                 : 1 h 42 min
  165. Bit rate                                 : 22.1 kb/s
  166. Count of elements                        : 1574
  167. Stream size                              : 16.2 MiB (0%)
  168. Title                                    : 西班牙文
  169. Language                                 : Spanish
  170. Default                                  : No
  171. Forced                                   : No
  172. Original source medium                   : Blu-ray
  173. Menu
  174. 00:00:00.000                             : en:Chapter 01
  175. 00:08:32.887                             : en:Chapter 02
  176. 00:15:19.043                             : en:Chapter 03
  177. 00:21:55.564                             : en:Chapter 04
  178. 00:28:52.647                             : en:Chapter 05
  179. 00:36:15.882                             : en:Chapter 06
  180. 00:46:04.303                             : en:Chapter 07
  181. 00:53:05.098                             : en:Chapter 08
  182. 00:59:15.301                             : en:Chapter 09
  183. 01:07:15.823                             : en:Chapter 10
  184. 01:13:30.864                             : en:Chapter 11
  185. 01:22:28.234                             : en:Chapter 12
  186. 01:30:48.234                             : en:Chapter 13
  187. 01:37:43.524                             : en:Chapter 14





此处一般会放置磁力链或种子下载链接,不过此链接需要注册会员才能看到,点击“立即注册”
磁力链下载【下载链接仅对注册会员开放,登陆后可见】
BT9527电影天堂 1、BT9527电影天堂提供的BT文件均来源于互联网抓取,只供网友学习交流、技术提升使用。
2、我们遵守BitTorrent点对点协议原则,任何版权问题请联系原资源发布商,我们不处理任何版权纠纷,谢谢!如有争议请联系邮箱:BT9527#hotmail.com(#换成@)
3、如果您发现某页面或地址有错误,请联系站长邮箱BT9527#hotmail.com(#换成@),我们会尽快处理。您的热心是对BT9527电影天堂最大的支持。
4、本站建议去正规影院观看电影以支持电影行业发展。
最新回复 (0)

你可以在 登录 or 注册 后,对此帖发表评论!

返回
发新帖