死神来了2[国英多音轨/简繁英特效字幕].Final.Destination.2003.CEE.Bluray.1080p.x265.10bit.DDP5.1-MiniHD 8.77GB

版主小s 5月前 204

✔资源类型:暂未分类   ✔电影年份:更 早   ✔电影地区:欧美   ✔电影分类:惊悚

◎译  名 死神来了2 / 绝命终结站2(台) / 死神又来了(港)
◎片  名 Final Destination 2
◎年  代 2003
◎产  地 美国 / 加拿大
◎类  别 惊悚 / 恐怖
◎语  言 英语
◎上映日期 2003-01-31(美国)
◎IMDb链接 https://www.imdb.com/title/tt0309593/
◎豆瓣评分 7.5/10 (159541人评价)
◎豆瓣链接 https://movie.douban.com/subject/1307956/
◎片  长 90 分钟
◎导  演 大卫·R·艾里斯 David R. Ellis (id:1050082)
◎编  剧 J·麦基·格鲁伯 J. Mackye Gruber (id:1285555)
       埃里克·布雷斯 Eric Bress (id:1279265)
       杰弗里·雷迪克 Jeffrey Reddick (id:1436457)
◎演  员 艾丽·拉特 Ali Larter (id:1018978)
       A·J·库克 A.J. Cook (id:1077047)
       迈克尔·兰德斯 Michael Landes (id:1049724)
       大卫·佩特考 David Paetkau (id:1135567)
       詹姆斯·柯克 James Kirk (id:1109192)
       琳达·博伊德 Lynda Boyd (id:1055965)
       基冈·康纳·特雷西 Keegan Connor Tracy (id:1152919)
       乔纳森·切里 Jonathan Cherry (id:1399610)
       特伦斯·卡森 Terrence 'T.C.' Carson (id:1071013)
       贾斯蒂娜·马查多 Justina Machado (id:1122666)
       托尼·托德 Tony Todd (id:1036498)
       莎拉·卡特 Sarah Carter (id:1040584)
       亚利桑德罗·雷 Alejandro Rae (id:1222664)
       肖恩·西珀斯 Shaun Sipos (id:1040649)
       安德鲁·爱尔莱 Andrew Airlie (id:1058568)
       克里斯蒂娜·杰斯特泽姆布斯卡 Christina Jastrzembska (id:1419197)
       艾琳·佩德 Eileen Pedde (id:1386074)
       诺尔·费舍 Noel Fisher (id:1084181)
       贝妮塔·夏 Benita Ha (id:1412727)
       阿伦·道格拉斯 Aaron Douglas (id:1085764)
       埃里克·李塞德 Eric Keenleyside (id:1106554)
       伊妮德·雷伊·亚当斯 Enid-Raye Adams (id:1058212)
       薇娜·苏德 Veena Sood (id:1339926)
       达西·劳瑞 Darcy Laurie (id:1110217)
       John R. Taylor John R. Taylor (id:1299003)
       奇尔顿·克兰 Chilton Crane (id:1414032)
       Klodyne Rodney Klodyne Rodney (id:1148486)
       凯姆·科罗宁 Cam Cronin (id:1054859)
       罗杰·R.克劳斯 Roger R. Cross (id:1055522)
       克雷格·佩里 Craig Perry (id:1435380)
       华伦·仔德 Warren Zide (id:1435379)
       希拉·哈纳汉 Sheila Hanahan (id:1023650)
       托比·艾默里奇 Toby Emmerich (id:1005136)
       杰弗里·雷迪克 Jeffrey Reddick (id:1436457)
       雪莉·沃克 Shirley Walker (id:1000946)
       埃里克·A·西尔斯 Eric A. Sears (id:1297119)
       约翰·帕帕席德拉 John Papsidera (id:1293922)
       James Steuart James Steuart (id:1051677)
       乔里·伍德曼 Jori Woodman (id:1301243)
       Donna Bis Donna Bis (id:1278685)
       文斯·吉田 Vince Yoshida (id:1024240)
       J.P. Mass J.P. Mass (id:1291233)
       Debbie Vandelaar Debbie Vandelaar (id:1304365)
       Monica Huppert Monica Huppert (id:1105836)
       Dean Scheck Dean Scheck (id:1296839)
       罗伯特·A·潘蒂尼 Robert A. Pandini (id:1055674)
       苏珊·波伊德 Susan Boyd (id:1069324)
       比尔·特雷扎基斯 Bill Terezakis (id:1299071)
       Josy Capkun Josy Capkun (id:1056157)
       Kathy Houghton Kathy Houghton (id:1286968)
       弗雷迪·海斯 Freddie Hice (id:1286573)
       胡安·卡洛斯·巴尔加斯 Juan Carlos Vargas (id:1038055)
       塔米·萨顿 Tammy Sutton (id:1298686)
       Eugene P. Rizzardi Eugene P. Rizzardi (id:1295729)
       Justin Mitchell Justin Mitchell (id:1292234)
       Sherry Hitch Sherry Hitch (id:1286696)
       雷·麦金太尔 Ray McIntyre Jr. (id:1291625)
       Patrick Murphy Patrick Murphy (id:1129780)
       Mike Hardison Mike Hardison (id:1286025)
       吉姆·戈尔曼 Jim Gorman (id:1285203)
       James Coulter James Coulter (id:1281373)
       杰罗姆·莫林 Jerome Morin (id:1307280)
       班诺特·吉拉尔 Benoit Girard (id:1308287)
       安德鲁·罗伯茨 Andrew Roberts (id:1223036)
       David R. Hardberger David R. Hardberger (id:1006420)
       迈克尔·乔伊斯 Michael Joyce (id:1008348)

◎简  介
  少女金伯莉(A.J. Cook 饰)与好友驱车去郊外游玩,途中她预见一场严重的连环交通事故,而自己和朋友也将命丧其中。猛然惊醒的金伯莉将车横在路中央,阻挡了后面的车辆。然而车祸仍然发生,金伯莉侥幸逃过一劫,另有六人从灾难中逃生。这奇异的经历让众人想起180号航班幸存者的故事。                                    
                                正如他们预料的那样,死神不会放过任何一个逃跑者。这些幸存者按照他们本该在车祸中死去的顺序一个接一个在各种巧合和意外中死去,金伯莉成为最后的生者。她得知180航班幸存者克莉尔(Ali Larter 饰)仍然健在,她希望从克莉尔那里得到逃脱死神魔爪的办法……
  1. ##### MediaInfo ######
  2. General
  3. Unique ID                                : 167724390841287398790611944394365922562 (0x7E2E8AEC965389087B97BD490AD0ED02)
  4. Complete name                            : Final.Destination.2003.CEE.Bluray.1080p.x265.10bit.DDP5.1-MiniHD.mkv
  5. Format                                   : Matroska
  6. Format version                           : Version 4
  7. File size                                : 8.77 GiB
  8. Duration                                 : 1 h 30 min
  9. Overall bit rate                         : 13.9 Mb/s
  10. Movie name                               : Final.Destination.2003.CEE.Bluray.1080p.x265.10bit.DDP5.1.MNHD-FRDS
  11. Encoded date                             : UTC 2022-06-09 06:24:22
  12. Writing application                      : mkvmerge v66.0.0 ('Josie') 64-bit
  13. Writing library                          : libebml v1.4.2 + libmatroska v1.6.4
  14. Cover                                    : Yes
  15. Attachments                              : cover.jpg
  16. Video
  17. ID                                       : 1
  18. Format                                   : HEVC
  19. Format/Info                              : High Efficiency Video Coding
  20. Format profile                           : Main 10@L5.1@High
  21. Codec ID                                 : V_MPEGH/ISO/HEVC
  22. Duration                                 : 1 h 30 min
  23. Bit rate                                 : 11.7 Mb/s
  24. Width                                    : 1 920 pixels
  25. Height                                   : 1 080 pixels
  26. Display aspect ratio                     : 16:9
  27. Frame rate mode                          : Constant
  28. Frame rate                               : 23.976 (24000/1001/53354) FPS
  29. Color space                              : YUV
  30. Chroma subsampling                       : 4:2:0
  31. Bit depth                                : 10 bits
  32. Bits/(Pixel*Frame)                       : 0.236
  33. Stream size                              : 7.38 GiB (84%)
  34. Writing library                          : x265 3.5+29-3415705dd:[Windows][MSVC 1930][64 bit] 10bit
  35. Encoding settings                        : cpuid=533541111039 / frame-threads=4 / numa-pools=16 / wpp / pmode / no-pme / no-psnr / no-ssim / log-level=2 / input-csp=1 / input-res=1920x1080 / interlace=0 / total-frames=129739 / level-idc=0 / high-tier=1 / uhd-bd=0 / ref=6 / no-allow-non-conformance / no-repeat-headers / annexb / no-aud / no-eob / no-eos / no-hrd / info / hash=0 / no-temporal-layers / no-open-gop / min-keyint=1 / keyint=250 / gop-lookahead=0 / bframes=8 / b-adapt=2 / b-pyramid / bframe-bias=0 / rc-lookahead=100 / lookahead-slices=0 / NTMzNTQ=uuDQuD2mJt9fsCf / scenecut=40 / no-hist-scenecut / radl=0 / no-splice / no-intra-refresh / ctu=32 / min-cu-size=8 / no-rect / no-amp / max-tu-size=32 / tu-inter-depth=4 / tu-intra-depth=4 / limit-tu=0 / rdoq-level=2 / dynamic-rd=0.00 / no-ssim-rd / signhide / tskip / nr-intra=0 / nr-inter=0 / no-constrained-intra / no-strong-intra-smoothing / max-merge=5 / limit-refs=0 / no-limit-modes / me=3 / subme=7 / merange=57 / temporal-mvp / no-frame-dup / no-hme / weightp / weightb / no-analyze-src-pics / deblock=-3:-3 / no-sao / no-sao-non-deblock / rd=4 / selective-sao=0 / no-early-skip / no-rskip / no-fast-intra / no-tskip-fast / no-cu-lossless / b-intra / no-splitrd-skip / rdpenalty=0 / psy-rd=1.50 / psy-rdoq=1.00 / no-rd-refine / no-lossless / cbqpoffs=-2 / crqpoffs=-2 / rc=crf / crf=20.0 / qcomp=0.65 / qpstep=4 / stats-write=0 / stats-read=0 / vbv-maxrate=160000 / vbv-bufsize=160000 / vbv-init=0.9 / min-vbv-fullness=50.0 / max-vbv-fullness=80.0 / crf-max=0.0 / crf-min=0.0 / ipratio=1.30 / pbratio=1.20 / aq-mode=1 / aq-strength=1.00 / no-cutree / zone-count=0 / no-strict-cbr / qg-size=8 / no-rc-grain / qpmax=69 / qpmin=0 / no-const-vbv / sar=0 / overscan=0 / videoformat=5 / range=0 / colorprim=1 / transfer=1 / colormatrix=1 / chromaloc=0 / display-window=0 / cll=0,0 / min-luma=0 / max-luma=1023 / log2-max-poc-lsb=8 / vui-timing-info / vui-hrd-info / slices=1 / no-opt-qp-pps / no-opt-ref-list-length-pps / no-multi-pass-opt-rps / scenecut-bias=0.05 / hist-threshold=0.03 / no-opt-cu-delta-qp / no-aq-motion / no-hdr10 / no-hdr10-opt / no-dhdr10-opt / no-idr-recovery-sei / analysis-reuse-level=0 / analysis-save-reuse-level=0 / analysis-load-reuse-level=0 / scale-factor=0 / refine-intra=0 / refine-inter=0 / refine-mv=1 / refine-ctu-distortion=0 / no-limit-sao / ctu-info=0 / no-lowpass-dct / refine-analysis-type=0 / copy-pic=1 / max-ausize-factor=1.0 / no-dynamic-refine / no-single-sei / no-hevc-aq / no-svt / no-field / qp-adaptation-range=1.00 / scenecut-aware-qp=0conformance-window-offsets / right=0 / bottom=0 / NTMzNTQ= / decoder-max-rate=0 / no-vbv-live-multi-pass
  36. Default                                  : Yes
  37. Forced                                   : No
  38. Color range                              : Limited
  39. Color primaries                          : BT.709
  40. Transfer characteristics                 : BT.709
  41. Matrix coefficients                      : BT.709
  42. Audio #1
  43. ID                                       : 2
  44. Format                                   : E-AC-3
  45. Format/Info                              : Enhanced AC-3
  46. Commercial name                          : Dolby Digital Plus
  47. Codec ID                                 : A_EAC3
  48. Duration                                 : 1 h 30 min
  49. Bit rate mode                            : Constant
  50. Bit rate                                 : 1 024 kb/s
  51. Channel(s)                               : 6 channels
  52. Channel layout                           : L R C LFE Ls Rs
  53. Sampling rate                            : 48.0 kHz
  54. Frame rate                               : 31.250 FPS (1536 SPF)
  55. Compression mode                         : Lossy
  56. Stream size                              : 661 MiB (7%)
  57. Title                                    : English
  58. Language                                 : English
  59. Service kind                             : Complete Main
  60. Default                                  : Yes
  61. Forced                                   : No
  62. Audio #2
  63. ID                                       : 3
  64. Format                                   : E-AC-3
  65. Format/Info                              : Enhanced AC-3
  66. Commercial name                          : Dolby Digital Plus
  67. Codec ID                                 : A_EAC3
  68. Duration                                 : 1 h 30 min
  69. Bit rate mode                            : Constant
  70. Bit rate                                 : 1 024 kb/s
  71. Channel(s)                               : 6 channels
  72. Channel layout                           : L R C LFE Ls Rs
  73. Sampling rate                            : 48.0 kHz
  74. Frame rate                               : 31.250 FPS (1536 SPF)
  75. Compression mode                         : Lossy
  76. Stream size                              : 661 MiB (7%)
  77. Title                                    : 东影上译国配
  78. Language                                 : Chinese
  79. Service kind                             : Complete Main
  80. Default                                  : No
  81. Forced                                   : No
  82. Text #1
  83. ID                                       : 4
  84. Format                                   : PGS
  85. Muxing mode                              : zlib
  86. Codec ID                                 : S_HDMV/PGS
  87. Codec ID/Info                            : Picture based subtitle format used on BDs/HD-DVDs
  88. Duration                                 : 1 h 24 min
  89. Bit rate                                 : 38.0 kb/s
  90. Count of elements                        : 2101
  91. Stream size                              : 23.1 MiB (0%)
  92. Title                                    : CHS&ENG
  93. Language                                 : Chinese
  94. Default                                  : Yes
  95. Forced                                   : No
  96. Text #2
  97. ID                                       : 5
  98. Format                                   : PGS
  99. Muxing mode                              : zlib
  100. Codec ID                                 : S_HDMV/PGS
  101. Codec ID/Info                            : Picture based subtitle format used on BDs/HD-DVDs
  102. Duration                                 : 1 h 25 min
  103. Bit rate                                 : 214 kb/s
  104. Count of elements                        : 4474
  105. Stream size                              : 130 MiB (1%)
  106. Title                                    : CHS.国配特效
  107. Language                                 : Chinese
  108. Default                                  : No
  109. Forced                                   : No
  110. Text #3
  111. ID                                       : 6
  112. Format                                   : PGS
  113. Muxing mode                              : zlib
  114. Codec ID                                 : S_HDMV/PGS
  115. Codec ID/Info                            : Picture based subtitle format used on BDs/HD-DVDs
  116. Duration                                 : 1 h 24 min
  117. Bit rate                                 : 38.6 kb/s
  118. Count of elements                        : 2101
  119. Stream size                              : 23.4 MiB (0%)
  120. Title                                    : CHT&ENG
  121. Language                                 : Chinese
  122. Default                                  : No
  123. Forced                                   : No
  124. Text #4
  125. ID                                       : 7
  126. Format                                   : PGS
  127. Muxing mode                              : zlib
  128. Codec ID                                 : S_HDMV/PGS
  129. Codec ID/Info                            : Picture based subtitle format used on BDs/HD-DVDs
  130. Duration                                 : 1 h 24 min
  131. Bit rate                                 : 22.9 kb/s
  132. Count of elements                        : 2101
  133. Stream size                              : 13.9 MiB (0%)
  134. Title                                    : CHT
  135. Language                                 : Chinese
  136. Default                                  : No
  137. Forced                                   : No
  138. Text #5
  139. ID                                       : 8
  140. ID in the original source medium         : 4608 (0x1200)
  141. Format                                   : PGS
  142. Muxing mode                              : zlib
  143. Codec ID                                 : S_HDMV/PGS
  144. Codec ID/Info                            : Picture based subtitle format used on BDs/HD-DVDs
  145. Duration                                 : 1 h 24 min
  146. Bit rate                                 : 34.2 kb/s
  147. Count of elements                        : 1998
  148. Stream size                              : 20.8 MiB (0%)
  149. Title                                    : ENG
  150. Language                                 : English
  151. Default                                  : No
  152. Forced                                   : No
  153. Original source medium                   : Blu-ray
  154. Menu
  155. 00:00:00.000                             : en:Chapter 01
  156. 00:04:48.288                             : en:Chapter 02
  157. 00:16:39.415                             : en:Chapter 03
  158. 00:20:59.091                             : en:Chapter 04
  159. 00:29:51.790                             : en:Chapter 05
  160. 00:38:46.949                             : en:Chapter 06
  161. 00:44:52.815                             : en:Chapter 07
  162. 00:50:56.595                             : en:Chapter 08
  163. 00:56:16.998                             : en:Chapter 09
  164. 01:00:47.852                             : en:Chapter 10
  165. 01:08:14.715                             : en:Chapter 11
  166. 01:12:54.995                             : en:Chapter 12
  167. 01:19:09.953                             : en:Chapter 13
  168. 01:22:52.384                             : en:Chapter 14
  169. 01:25:17.737                             : en:Chapter 15



此处一般会放置磁力链或种子下载链接,不过此链接需要注册会员才能看到,点击“立即注册”
磁力链下载【下载链接仅对注册会员开放,登陆后可见】
BT9527电影天堂 1、BT9527电影天堂提供的BT文件均来源于互联网抓取,只供网友学习交流、技术提升使用。
2、我们遵守BitTorrent点对点协议原则,任何版权问题请联系原资源发布商,我们不处理任何版权纠纷,谢谢!如有争议请联系邮箱:BT9527#hotmail.com(#换成@)
3、如果您发现某页面或地址有错误,请联系站长邮箱BT9527#hotmail.com(#换成@),我们会尽快处理。您的热心是对BT9527电影天堂最大的支持。
4、本站建议去正规影院观看电影以支持电影行业发展。
最新回复 (0)

你可以在 登录 or 注册 后,对此帖发表评论!

返回
发新帖