狼图腾[国语音轨/简繁英字幕].Wolf.Totem.2015.BluRay.1080p.x265.10bit.DDP5.1-MiniHD 10.52GB

版主小s 5月前 235

✔资源类型:暂未分类   ✔电影年份:2015   ✔电影地区:大陆   ✔电影分类:剧情

◎译  名 狼图腾 / Le Dernier Loup / Wolf Totem
◎年  代 2015
◎产  地 中国大陆 / 法国
◎类  别 剧情 / 冒险
◎语  言 汉语普通话 / 蒙古语
◎上映日期 2015-02-19(中国大陆) / 2015-02-25(法国)
◎IMDb链接 https://www.imdb.com/title/tt2909116/
◎豆瓣评分 6.9/10 (189677人评价)
◎豆瓣链接 https://movie.douban.com/subject/3993588/
◎片  长 121分钟
◎导  演 让-雅克·阿诺 Jean-Jacques Annaud (id:1056047)
◎编  剧 阿兰·戈达尔 Alain Godard (id:1322043)
       让-雅克·阿诺 Jean-Jacques Annaud (id:1056047)
       芦苇 Wei Lu (id:1275557)
       约翰·科里 John Collee (id:1281051)
       姜戎 Rong Jiang (id:1321562)
◎演  员 冯绍峰 Shaofeng Feng (id:1275721)
       窦骁 Shawn Dou (id:1274225)
       昂哈妮玛 Ankhnyam Rachaa (id:1345416)
       巴森 Mijid Baasanjav (id:1320883)
       尹铸胜 Zhusheng Yin (id:1313561)
       黄小蕾 Xiaolei Huang (id:1316146)
       图门巴雅尔 Tumenbayaer (id:1428414)
       韩童生 Tongsheng Han (id:1274722)
       王为民 Max Wang (id:1412456)
       江志强 William Kong (id:1288870)
       韩三平 Sanping Han (id:1274843)
       詹姆斯·霍纳 James Horner (id:1025277)
       杨涛 Tao Yang (id:1301418)
       让-马利·杜雷杰 Jean-Marie Dreujou (id:1282713)
       吴磊  (id:1462724)
       全荣哲 Quan Rongzhe (id:1360997)
       杨阳  (id:1468426)
       王钢 Gang Wang (id:1330582)
       郭建全 Jianquan Guo (id:1378376)

◎简  介
  上世纪60年代,北京知青陈阵(冯绍峰 饰)和杨克(窦骁 饰)来到了内蒙古额仑大草原插队,加入了蒙古族牧民毕利格老人(巴森 饰)以及他的儿媳噶斯迈(昂哈尼玛 饰)一家的生产队,从此开始若干年的放牧生活。在与狼群的接触过程中,陈阵带着强烈的好奇,逐渐了解了这种动物,甚至有了想自己养一 只小狼的念头。蒙古人民崇敬狼,热爱草原,而汉人则功利地掠夺土地,这导致了狼群与人之间的“战争”。以场部主任包顺贵(尹铸胜 饰)为首的生产队最终发起了一场灭狼运动,让狼群和人类之间的关系陷入到了剑拔弩张的地步…… 自然与人的关系也遭遇了前所未有的挑战。                                    
                                电影改编自姜戎同名小说,耗时5年拍摄完成。

◎获奖情况 (共15项)
  第52届台北金马影展 (2015)
  金马奖 最佳视觉效果(提名)

  第35届香港电影金像奖 (2016)
  最佳两岸华语电影(提名)

  第30届中国电影金鸡奖 (2015)
  最佳故事片
  最佳美术
  最佳录音(提名)
   └──王钢 (id:1330582)

  第33届大众电影百花奖 (2016)
  最佳男主角
   └──冯绍峰 (id:1275721)

  第16届中国电影华表奖 (2016)
  优秀故事片奖

  第5届北京国际电影节 (2015)
  天坛奖 最佳影片奖(提名)
   └──让-雅克·阿诺 (id:1056047)
  天坛奖 最佳导演奖
   └──让-雅克·阿诺 (id:1056047)
  天坛奖 最佳视觉效果奖

  第22届北京大学生电影节 (2015)
  最佳影片奖(提名)
  最佳导演奖
   └──让-雅克·阿诺 (id:1056047)
  最佳观赏效果奖
  评委会大奖(提名)

  第2届豆瓣电影年度榜单 (2015)
  2月最受关注电影

  1. ##### MediaInfo ######
  2. General
  3. Unique ID                                : 139186535405969969142857930849545067862 (0x68B65A0509F3E9E042795C7F9F139D56)
  4. Complete name                            : Wolf.Totem.2015.BluRay.1080p.x265.10bit.DDP5.1-MiniHD.mkv
  5. Format                                   : Matroska
  6. Format version                           : Version 4
  7. File size                                : 10.5 GiB
  8. Duration                                 : 2 h 1 min
  9. Overall bit rate                         : 12.4 Mb/s
  10. Movie name                               : Wolf.Totem.2015.BluRay.1080p.x265.10bit.DDP5.1.MNHD-FRDS
  11. Encoded date                             : UTC 2022-06-16 16:14:13
  12. Writing application                      : mkvmerge v68.0.0 ('The Curtain') 64-bit
  13. Writing library                          : libebml v1.4.2 + libmatroska v1.6.4
  14. Video
  15. ID                                       : 1
  16. Format                                   : HEVC
  17. Format/Info                              : High Efficiency Video Coding
  18. Format profile                           : Main 10@L5.1@High
  19. Codec ID                                 : V_MPEGH/ISO/HEVC
  20. Duration                                 : 2 h 1 min
  21. Bit rate                                 : 12.0 Mb/s
  22. Width                                    : 1 918 pixels
  23. Height                                   : 858 pixels
  24. Display aspect ratio                     : 2.25:1
  25. Frame rate mode                          : Constant
  26. Frame rate                               : 24.000 FPS
  27. Color space                              : YUV
  28. Chroma subsampling                       : 4:2:0
  29. Bit depth                                : 10 bits
  30. Bits/(Pixel*Frame)                       : 0.304
  31. Stream size                              : 10.2 GiB (97%)
  32. Writing library                          : x265 3.5+36-9b59d4554:[Windows][MSVC 1931][64 bit] 10bit
  33. Encoding settings                        : cpuid=533541111039 / frame-threads=4 / numa-pools=16 / wpp / pmode / no-pme / no-psnr / no-ssim / log-level=2 / input-csp=1 / input-res=1918x858 / interlace=0 / total-frames=174635 / level-idc=51 / high-tier=1 / uhd-bd=0 / ref=5 / no-allow-non-conformance / no-repeat-headers / annexb / no-aud / no-eob / no-eos / no-hrd / info / hash=0 / no-temporal-layers / no-open-gop / min-keyint=1 / keyint=250 / gop-lookahead=0 / bframes=8 / b-adapt=2 / b-pyramid / bframe-bias=0 / rc-lookahead=100 / lookahead-slices=0 / NTMzNTQ=uuDQuD2mJt9fsCf / scenecut=40 / no-hist-scenecut / radl=0 / no-splice / no-intra-refresh / ctu=32 / min-cu-size=8 / no-rect / no-amp / max-tu-size=32 / tu-inter-depth=4 / tu-intra-depth=4 / limit-tu=0 / rdoq-level=2 / dynamic-rd=0.00 / no-ssim-rd / signhide / tskip / nr-intra=0 / nr-inter=0 / no-constrained-intra / no-strong-intra-smoothing / max-merge=5 / limit-refs=0 / no-limit-modes / me=3 / subme=7 / merange=57 / temporal-mvp / no-frame-dup / no-hme / weightp / weightb / no-analyze-src-pics / deblock=-3:-3 / no-sao / no-sao-non-deblock / rd=4 / selective-sao=0 / no-early-skip / no-rskip / no-fast-intra / no-tskip-fast / no-cu-lossless / b-intra / no-splitrd-skip / rdpenalty=0 / psy-rd=1.50 / psy-rdoq=1.00 / no-rd-refine / no-lossless / cbqpoffs=-2 / crqpoffs=-2 / rc=crf / crf=19.0 / qcomp=0.65 / qpstep=4 / stats-write=0 / stats-read=0 / vbv-maxrate=160000 / vbv-bufsize=160000 / vbv-init=0.9 / min-vbv-fullness=50.0 / max-vbv-fullness=80.0 / crf-max=0.0 / crf-min=0.0 / ipratio=1.30 / pbratio=1.20 / aq-mode=1 / aq-strength=1.00 / no-cutree / zone-count=0 / no-strict-cbr / qg-size=8 / no-rc-grain / qpmax=69 / qpmin=0 / no-const-vbv / sar=0 / overscan=0 / videoformat=5 / range=0 / colorprim=1 / transfer=1 / colormatrix=1 / chromaloc=0 / display-window=0 / cll=0,0 / min-luma=0 / max-luma=1023 / log2-max-poc-lsb=8 / vui-timing-info / vui-hrd-info / slices=1 / no-opt-qp-pps / no-opt-ref-list-length-pps / no-multi-pass-opt-rps / scenecut-bias=0.05 / hist-threshold=0.03 / no-opt-cu-delta-qp / no-aq-motion / no-hdr10 / no-hdr10-opt / no-dhdr10-opt / no-idr-recovery-sei / analysis-reuse-level=0 / analysis-save-reuse-level=0 / analysis-load-reuse-level=0 / scale-factor=0 / refine-intra=0 / refine-inter=0 / refine-mv=1 / refine-ctu-distortion=0 / no-limit-sao / ctu-info=0 / no-lowpass-dct / refine-analysis-type=0 / copy-pic=1 / max-ausize-factor=1.0 / no-dynamic-refine / no-single-sei / no-hevc-aq / no-svt / no-field / qp-adaptation-range=1.00 / scenecut-aware-qp=0conformance-window-offsets / right=0 / bottom=0 / NTMzNTQ= / decoder-max-rate=0 / no-vbv-live-multi-pass
  34. Default                                  : Yes
  35. Forced                                   : No
  36. Color range                              : Limited
  37. Color primaries                          : BT.709
  38. Transfer characteristics                 : BT.709
  39. Matrix coefficients                      : BT.709
  40. Audio
  41. ID                                       : 2
  42. Format                                   : AAC LC
  43. Format/Info                              : Advanced Audio Codec Low Complexity
  44. Codec ID                                 : A_AAC-2
  45. Duration                                 : 2 h 1 min
  46. Bit rate                                 : 392 kb/s
  47. Channel(s)                               : 6 channels
  48. Channel layout                           : C L R Ls Rs LFE
  49. Sampling rate                            : 48.0 kHz
  50. Frame rate                               : 46.875 FPS (1024 SPF)
  51. Compression mode                         : Lossy
  52. Delay relative to video                  : 20 ms
  53. Stream size                              : 340 MiB (3%)
  54. Language                                 : Chinese
  55. Default                                  : Yes
  56. Forced                                   : No
  57. Text #1
  58. ID                                       : 3
  59. Format                                   : PGS
  60. Muxing mode                              : zlib
  61. Codec ID                                 : S_HDMV/PGS
  62. Codec ID/Info                            : Picture based subtitle format used on BDs/HD-DVDs
  63. Duration                                 : 1 h 51 min
  64. Bit rate                                 : 23.2 kb/s
  65. Count of elements                        : 2710
  66. Stream size                              : 18.4 MiB (0%)
  67. Title                                    : CHS
  68. Language                                 : Chinese
  69. Default                                  : Yes
  70. Forced                                   : No
  71. Text #2
  72. ID                                       : 4
  73. Format                                   : PGS
  74. Muxing mode                              : zlib
  75. Codec ID                                 : S_HDMV/PGS
  76. Codec ID/Info                            : Picture based subtitle format used on BDs/HD-DVDs
  77. Duration                                 : 1 h 51 min
  78. Bit rate                                 : 24.0 kb/s
  79. Count of elements                        : 2710
  80. Stream size                              : 19.1 MiB (0%)
  81. Title                                    : CHT
  82. Language                                 : Chinese
  83. Default                                  : No
  84. Forced                                   : No
  85. Text #3
  86. ID                                       : 5
  87. Format                                   : PGS
  88. Muxing mode                              : zlib
  89. Codec ID                                 : S_HDMV/PGS
  90. Codec ID/Info                            : Picture based subtitle format used on BDs/HD-DVDs
  91. Duration                                 : 1 h 53 min
  92. Bit rate                                 : 26.3 kb/s
  93. Count of elements                        : 2714
  94. Stream size                              : 21.3 MiB (0%)
  95. Title                                    : ENG
  96. Language                                 : English
  97. Default                                  : No
  98. Forced                                   : No
  99. Menu
  100. 00:00:00.000                             : :Chapter 01
  101. 00:10:32.000                             : :Chapter 02
  102. 00:21:21.000                             : :Chapter 03
  103. 00:30:42.000                             : :Chapter 04
  104. 00:40:15.000                             : :Chapter 05
  105. 00:50:01.000                             : :Chapter 06
  106. 01:01:04.000                             : :Chapter 07
  107. 01:10:47.000                             : :Chapter 08
  108. 01:22:01.000                             : :Chapter 09
  109. 01:29:29.000                             : :Chapter 10
  110. 01:40:39.000                             : :Chapter 11
  111. 01:50:57.000                             : :Chapter 12





此处一般会放置磁力链或种子下载链接,不过此链接需要注册会员才能看到,点击“立即注册”
磁力链下载【下载链接仅对注册会员开放,登陆后可见】
BT9527电影天堂 1、BT9527电影天堂提供的BT文件均来源于互联网抓取,只供网友学习交流、技术提升使用。
2、我们遵守BitTorrent点对点协议原则,任何版权问题请联系原资源发布商,我们不处理任何版权纠纷,谢谢!如有争议请联系邮箱:BT9527#hotmail.com(#换成@)
3、如果您发现某页面或地址有错误,请联系站长邮箱BT9527#hotmail.com(#换成@),我们会尽快处理。您的热心是对BT9527电影天堂最大的支持。
4、本站建议去正规影院观看电影以支持电影行业发展。
最新回复 (0)

你可以在 登录 or 注册 后,对此帖发表评论!

返回
发新帖