石之痛[简体字幕].From.the.Land.of.the.Moon.2016.BluRay.1080p.x265.10bit.DDP5.1-MiniHD 7.48GB

版主小s 5月前 202

✔资源类型:暂未分类   ✔电影年份:2016   ✔电影地区:其他   ✔电影分类:剧情

◎译  名 石之痛 / 炽恋(台) / 迷情花月(港) / 米粒之石 / From the Land of the Moon
◎片  名 Mal de pierres
◎年  代 2016
◎产  地 法国 / 比利时 / 加拿大
◎类  别 剧情 / 爱情
◎语  言 法语 / 西班牙语 / 德语
◎上映日期 2016-05-15(戛纳电影节) / 2016-10-19(法国)
◎IMDb链接 https://www.imdb.com/title/tt3794028/
◎豆瓣评分 6.7/10 (1143人评价)
◎豆瓣链接 https://movie.douban.com/subject/26051524/
◎片  长 120分钟
◎导  演 妮可·加西亚 Nicole Garcia (id:1102414)
◎编  剧 妮可·加西亚 Nicole Garcia (id:1102414)
       雅克·菲耶斯基 Jacques Fieschi (id:1283690)
       纳塔利·卡特 Nathalie Carter (id:1280198)
       米伦娜·阿格斯 Milena Agus (id:1371850)
◎演  员 玛丽昂·歌迪亚 Marion Cotillard (id:1006955)
       亚历克斯·布伦德穆尔 àlex Brendemühl (id:1075354)
       路易·加瑞尔 Louis Garrel (id:1018067)
       布里吉特·罗安 Brigitte Roüan (id:1028574)
       维克图瓦尔·杜布瓦 Victoire Du Bois (id:1371851)
       阿罗伊斯·索维奇 Alo?se Sauvage (id:1368241)
       丹尼尔·帕拉 Daniel Para (id:1371852)
       金基万 Jihwan Kim (id:1371853)
       维克托·奎利奇尼 Victor Quilichini (id:1371854)
       弗朗西斯科·阿方辛 Francisco Alfonsin (id:1377154)
       亚瑟·伊瓜尔 Arthur Igual (id:1342204)
       杰罗姆·察帕特 Jér?me Chappatte (id:1336246)
       丹尼尔·彭博顿 Daniel Pemberton (id:1373894)
       凯瑟琳·莱泰里尔 Catherine Leterrier (id:1289851)

◎简  介
  加里布埃尔(玛丽昂·歌迪亚 Marion Cotillard 饰)出生在法国南部的一个资产阶级家庭之中,父母做主将她嫁给了一个名为何塞(阿莱克斯·布伦德穆尔 Alex Brendemühl 饰)西班牙农场工人,虽然何塞性格老实又善良,对待加里布埃尔非常的体贴,可是加里布埃尔对他却没有任何的感情,她和何塞的关系并不是她心目中渴求的那种爱情。                                    
                                加里布埃尔被查出患上了肾结石,于是前往温泉疗养地休养,在那里,加里布埃尔邂逅了名为安德烈(路易斯·加瑞尔 Louis Garrel 饰)的中威,他因为在印度战争中受伤也在此地疗养。加里布埃尔和安德烈之间的爱火在瞬间雄心燃烧起来,两人决定私奔。

◎获奖情况 (共9项)
  第69届戛纳电影节 (2016)
  主竞赛单元 金棕榈奖(提名)
   └──妮可·加西亚 (id:1102414)

  第42届法国凯撒电影奖 (2017)
  最佳影片(提名)
  最佳导演(提名)
   └──妮可·加西亚 (id:1102414)
  最佳女主角(提名)
   └──玛丽昂·歌迪亚 (id:1006955)
  最佳改编剧本(提名)
  最佳摄影(提名)
  最佳剪辑(提名)
  最佳音效(提名)
  最佳服装(提名)

  1. ##### MediaInfo ######
  2. General
  3. Unique ID                                : 208683646081803052465214339499768568367 (0x9CFF021F3F211523D4218398E12E5A2F)
  4. Complete name                            : From.the.Land.of.the.Moon.2016.BluRay.1080p.x265.10bit.DDP5.1-MiniHD.mkv
  5. Format                                   : Matroska
  6. Format version                           : Version 4
  7. File size                                : 7.48 GiB
  8. Duration                                 : 2 h 0 min
  9. Overall bit rate                         : 8 873 kb/s
  10. Encoded date                             : UTC 2022-06-14 00:56:14
  11. Writing application                      : mkvmerge v68.0.0 ('The Curtain') 64-bit
  12. Writing library                          : libebml v1.4.2 + libmatroska v1.6.4
  13. Video
  14. ID                                       : 1
  15. Format                                   : HEVC
  16. Format/Info                              : High Efficiency Video Coding
  17. Format profile                           : Main 10@L5@High
  18. Codec ID                                 : V_MPEGH/ISO/HEVC
  19. Duration                                 : 2 h 0 min
  20. Bit rate                                 : 7 841 kb/s
  21. Width                                    : 1 920 pixels
  22. Height                                   : 796 pixels
  23. Display aspect ratio                     : 2.40:1
  24. Frame rate mode                          : Constant
  25. Frame rate                               : 24.000 FPS
  26. Color space                              : YUV
  27. Chroma subsampling                       : 4:2:0
  28. Bit depth                                : 10 bits
  29. Bits/(Pixel*Frame)                       : 0.214
  30. Stream size                              : 6.61 GiB (88%)
  31. Writing library                          : x265 3.5+20-17839cc0d:[Windows][GCC 11.2.0][64 bit] 10bit
  32. Encoding settings                        : cpuid=533541111039 / frame-threads=5 / numa-pools=24,24 / wpp / no-pmode / no-pme / no-psnr / no-ssim / log-level=2 / input-csp=1 / input-res=1920x796 / interlace=0 / total-frames=173812 / level-idc=0 / high-tier=1 / uhd-bd=0 / ref=5 / no-allow-non-conformance / no-repeat-headers / annexb / no-aud / no-eob / no-eos / no-hrd / info / hash=0 / no-temporal-layers / no-open-gop / min-keyint=24 / keyint=250 / gop-lookahead=0 / bframes=9 / b-adapt=2 / b-pyramid / bframe-bias=0 / rc-lookahead=60 / lookahead-slices=0 / NTMzNTQ=uuDQuD2mJt9fsCf / scenecut=40 / no-hist-scenecut / radl=0 / no-splice / no-intra-refresh / ctu=32 / min-cu-size=8 / no-rect / no-amp / max-tu-size=32 / tu-inter-depth=4 / tu-intra-depth=4 / limit-tu=0 / rdoq-level=2 / dynamic-rd=0.00 / no-ssim-rd / signhide / no-tskip / nr-intra=0 / nr-inter=0 / no-constrained-intra / no-strong-intra-smoothing / max-merge=5 / limit-refs=0 / no-limit-modes / me=3 / subme=5 / merange=57 / temporal-mvp / no-frame-dup / no-hme / weightp / weightb / no-analyze-src-pics / deblock=-1:-1 / no-sao / no-sao-non-deblock / rd=4 / selective-sao=0 / no-early-skip / no-rskip / no-fast-intra / no-tskip-fast / no-cu-lossless / b-intra / no-splitrd-skip / rdpenalty=0 / psy-rd=2.00 / psy-rdoq=5.00 / no-rd-refine / no-lossless / cbqpoffs=0 / crqpoffs=0 / rc=crf / crf=19.0 / qcomp=0.70 / qpstep=4 / stats-write=0 / stats-read=0 / vbv-maxrate=100000 / vbv-bufsize=100000 / vbv-init=0.9 / min-vbv-fullness=50.0 / max-vbv-fullness=80.0 / crf-max=0.0 / crf-min=0.0 / ipratio=1.40 / pbratio=1.30 / aq-mode=1 / aq-strength=0.90 / no-cutree / zone-count=0 / no-strict-cbr / qg-size=32 / no-rc-grain / qpmax=69 / qpmin=0 / no-const-vbv / sar=0 / overscan=0 / videoformat=5 / range=0 / colorprim=1 / transfer=1 / colormatrix=1 / chromaloc=0 / display-window=0 / cll=0,0 / min-luma=0 / max-luma=1023 / log2-max-poc-lsb=8 / vui-timing-info / vui-hrd-info / slices=1 / no-opt-qp-pps / no-opt-ref-list-length-pps / no-multi-pass-opt-rps / scenecut-bias=0.05 / hist-threshold=0.03 / no-opt-cu-delta-qp / no-aq-motion / no-hdr10 / no-hdr10-opt / no-dhdr10-opt / no-idr-recovery-sei / analysis-reuse-level=0 / analysis-save-reuse-level=0 / analysis-load-reuse-level=0 / scale-factor=0 / refine-intra=0 / refine-inter=0 / refine-mv=1 / refine-ctu-distortion=0 / no-limit-sao / ctu-info=0 / no-lowpass-dct / refine-analysis-type=0 / copy-pic=1 / max-ausize-factor=1.0 / no-dynamic-refine / no-single-sei / no-hevc-aq / no-svt / no-field / qp-adaptation-range=1.00 / scenecut-aware-qp=0conformance-window-offsets / right=0 / bottom=0 / NTMzNTQ= / decoder-max-rate=0 / no-vbv-live-multi-pass
  33. Default                                  : Yes
  34. Forced                                   : No
  35. Color range                              : Limited
  36. Color primaries                          : BT.709
  37. Transfer characteristics                 : BT.709
  38. Matrix coefficients                      : BT.709
  39. Audio
  40. ID                                       : 2
  41. Format                                   : E-AC-3
  42. Format/Info                              : Enhanced AC-3
  43. Commercial name                          : Dolby Digital Plus
  44. Codec ID                                 : A_EAC3
  45. Duration                                 : 2 h 0 min
  46. Bit rate mode                            : Constant
  47. Bit rate                                 : 1 024 kb/s
  48. Channel(s)                               : 6 channels
  49. Channel layout                           : L R C LFE Ls Rs
  50. Sampling rate                            : 48.0 kHz
  51. Frame rate                               : 31.250 FPS (1536 SPF)
  52. Compression mode                         : Lossy
  53. Stream size                              : 884 MiB (12%)
  54. Language                                 : French
  55. Service kind                             : Complete Main
  56. Default                                  : Yes
  57. Forced                                   : No
  58. Text
  59. ID                                       : 3
  60. ID in the original source medium         : 4611 (0x1203)
  61. Format                                   : PGS
  62. Muxing mode                              : zlib
  63. Codec ID                                 : S_HDMV/PGS
  64. Codec ID/Info                            : Picture based subtitle format used on BDs/HD-DVDs
  65. Duration                                 : 1 h 55 min
  66. Bit rate                                 : 12.2 kb/s
  67. Count of elements                        : 1699
  68. Stream size                              : 10.1 MiB (0%)
  69. Title                                    : chs
  70. Language                                 : Chinese
  71. Default                                  : Yes
  72. Forced                                   : No
  73. Original source medium                   : Blu-ray
  74. Menu
  75. 00:00:00.000                             : en:Chapter01
  76. 00:09:13.291                             : en:Chapter02
  77. 00:20:17.625                             : en:Chapter03
  78. 00:30:15.791                             : en:Chapter04
  79. 00:41:17.833                             : en:Chapter05
  80. 00:51:22.541                             : en:Chapter06
  81. 00:59:30.541                             : en:Chapter07
  82. 01:09:09.541                             : en:Chapter08
  83. 01:18:47.166                             : en:Chapter09
  84. 01:30:38.041                             : en:Chapter10
  85. 01:38:45.375                             : en:Chapter11
  86. 01:50:58.375                             : en:Chapter12
  87. 01:55:43.166                             : en:Chapter13





此处一般会放置磁力链或种子下载链接,不过此链接需要注册会员才能看到,点击“立即注册”
磁力链下载【下载链接仅对注册会员开放,登陆后可见】
BT9527电影天堂 1、BT9527电影天堂提供的BT文件均来源于互联网抓取,只供网友学习交流、技术提升使用。
2、我们遵守BitTorrent点对点协议原则,任何版权问题请联系原资源发布商,我们不处理任何版权纠纷,谢谢!如有争议请联系邮箱:BT9527#hotmail.com(#换成@)
3、如果您发现某页面或地址有错误,请联系站长邮箱BT9527#hotmail.com(#换成@),我们会尽快处理。您的热心是对BT9527电影天堂最大的支持。
4、本站建议去正规影院观看电影以支持电影行业发展。
最新回复 (0)

你可以在 登录 or 注册 后,对此帖发表评论!

返回
发新帖