空中监狱[国英多音轨/简繁英特效字幕].ConAir.1997.BluRay.1080p.x265.10bit.DDP5.1.REPACK2-MiniHD 8.66GB

版主小s 5月前 327

✔资源类型:暂未分类   ✔电影年份:更 早   ✔电影地区:欧美   ✔电影分类:剧情

◎译  名 空中监狱 / 惊天动地(港) / 空中囚犯 / 罪犯的空中之旅
◎片  名 Con Air
◎年  代 1997
◎产  地 美国
◎类  别 剧情 / 动作 / 惊悚 / 犯罪
◎语  言 英语
◎上映日期 1997-06-06(美国)
◎IMDb链接 https://www.imdb.com/title/tt0118880/
◎豆瓣评分 8.2/10 (173223人评价)
◎豆瓣链接 https://movie.douban.com/subject/1300618/
◎片  长 115分钟
◎导  演 西蒙·韦斯特 Simon West (id:1300732)
◎编  剧 斯科特·罗森伯格 Scott Rosenberg (id:1045248)
◎演  员 尼古拉斯·凯奇 Nicolas Cage (id:1054455)
       约翰·库萨克 John Cusack (id:1018986)
       约翰·马尔科维奇 John Malkovich (id:1041013)
       文·瑞姆斯 Ving Rhames (id:1048129)
       科尔姆·米尼 Colm Meaney (id:1019029)
       麦凯尔泰·威廉逊 Mykelti Williamson (id:1031912)
       尼克·齐兰德 Nick Chinlund (id:1040642)
       大卫·查普尔 Dave Chappelle (id:1077857)
       雷切尔·蒂科汀 Rachel Ticotin (id:1040638)
       史蒂夫·布西密 Steve Buscemi (id:1054409)
       丹尼·特雷霍 Danny Trejo (id:1044721)
       迈克·康纳·盖尼 M.C. Gainey (id:1100584)
       兰德里·阿尔伯特 Landry Allbright (id:1057037)
       莫妮卡·波特 Monica Potter (id:1009276)
       杰西·博雷格 Jesse Borrego (id:1055876)
       何塞·祖尼加 José Zú?iga (id:1301811)
       耐德·巴拉米 Ned Bellamy (id:1048233)
       约翰·罗斯留斯 John Roselius (id:1337565)
       弗瑞德里克·林恩 Fredric Lehne (id:1004785)
       安吉拉·范泽斯通 Angela Featherstone (id:1000270)
       道格·休切逊 Doug Hutchison (id:1018015)
       大卫·莱姆希 David Ramsey (id:1312850)
       埃米里奥·瑞弗拉 Emilio Rivera (id:1032260)
       格雷格·科林斯 Greg Collins (id:1071934)
       唐·戴维斯 Don S. Davis (id:1025257)
       雷诺里·圣地亚哥 Renoly Santiago (id:1144875)
       布伦丹·凯利 Brendan Kelly (id:1027494)
       马里奥罗伯茨 Mario Roberts (id:1295776)
       Ty Granderson Jones Ty Granderson Jones (id:1110809)
       Earl Billings Earl Billings (id:1064846)
       Billy Devlin Billy Devlin (id:1085846)
       马克·金特尔 Mark Ginther (id:1284925)
       小托马斯·罗萨莱斯 Thomas Rosales Jr. (id:1143150)
       埃迪·佩雷斯 Eddie Perez (id:1294285)
       杰夫·奥尔森 Jeff Olson (id:1127357)
       马蒂·麦克索利 Marty McSorley (id:1120126)
       布莱恩·库瑞 Brian Hayes Currie (id:1403831)
       Barbara Sharma Barbara Sharma (id:1146050)
       鲍勃·斯蒂芬森 Bob Stephenson (id:1159961)
       皮特·安蒂克 Pete Antico (id:1277302)
       吉尔伯特·罗萨莱斯 Gilbert Rosales (id:1144990)
       斯科特·罗森伯格 Scott Rosenberg (id:1045248)
       约翰·迪尔 John Diehl (id:1048227)
       Christopher Robin Hood Christopher Robin Hood (id:1051154)
       鲍沃斯·布斯 Powers Boothe (id:1018001)
       Scott Ditty Scott Ditty (id:1081346)
       克里斯·埃里斯 Chris Ellis (id:1088482)
       康拉德·古德 Conrad Goode (id:1091827)
       戴布思·格里尔 Dabbs Greer (id:1093941)
       凯文·盖奇 Kevin Gage (id:1101199)
       Marco Kyris Marco Kyris (id:1108252)
       Kira Burt Kira Burt (id:1078788)
       凯文·库尼 Kevin Cooney (id:1054975)
       马修·巴里 Matthew Barry (id:1061255)
       Carl Ciarfalio Carl Ciarfalio (id:1069576)
       丹尼斯·伯克利 Dennis Burkley (id:1077543)
       吉姆·科夫 Jim Kouf (id:1023146)
       杰瑞·布鲁克海默 Jerry Bruckheimer (id:1049617)
       乔纳森·汉斯雷 Jonathan Hensleigh (id:1286460)
       肯尼·贝茨 Kenny Bates (id:1278088)
       特沃·拉宾 Trevor Rabin (id:1014253)
       马克·曼西纳 Mark Mancina (id:1032518)
       David Tattersall David Tattersall (id:1276576)
       克里斯·莱本森 Chris Lebenzon (id:1041806)
       马修·巴里 Matthew Barry (id:1061255)
       珍妮·麦卡蒂 Jeanne McCarthy (id:1291450)
       Edward T. McAvoy Edward T. McAvoy (id:1023651)
       Chas. Butcher Chas. Butcher (id:1279740)
       Kris Evans Kris Evans (id:1283346)
       Fay Kelly Fay Kelly (id:1288344)
       小弗雷德·C·布鲁 Fred C. Blau Jr. (id:1278788)
       托马斯·R·伯曼 Thomas R. Burman (id:1279663)
       Francisco X. Pérez Francisco X. Pérez (id:1280155)
       巴里·德雷班德-布尔曼 Bari Dreiband-Burman (id:1282711)
       Craig Hosking Craig Hosking (id:1100422)
       John J. Hermansen John J. Hermansen (id:1012989)
       Bob Wagner Bob Wagner (id:1161649)
       罗伯特·查平 Robert Chapin (id:1069731)
       Christofer Dierdorff Christofer Dierdorff (id:1282435)
       David Goldberg David Goldberg (id:1285036)
       Lee Croft Lee Croft (id:1215427)
       William Koshowany William Koshowany (id:1113194)
       加内克·西尔斯 Janek Sirrs (id:1028831)
       克莱格·巴朗 Craig Barron (id:1277981)
       Darin Hollings Darin Hollings (id:1286814)
       Mike Meaker Mike Meaker (id:1304042)
       Steven J. Chambers Steven J. Chambers (id:1182217)
       Larry Whitaker Larry Whitaker (id:1162188)
       Kurt E. Soderling Kurt E. Soderling (id:1001382)
       Gregory L. McMurry Gregory L. McMurry (id:1001651)
       Keith Shartle Keith Shartle (id:1143178)
       霍伊特·耶特曼 Hoyt Yeatman (id:1007234)
       Chuck Shuman Chuck Shuman (id:1048780)
       Timothy Taylor Timothy Taylor (id:1010384)
       特拉维斯·鲍曼 Travis Baumann (id:1048779)
       马克·丹菲特 Mark Dornfeld (id:1282612)
       罗布·霍奇森 Rob Hodgson (id:1286743)

◎简  介
  空中监狱是美国运送全美最危险的罪犯而专设的飞机。卡麦伦(尼古拉斯?凯奇 Nicolas Cage  饰)坐上这趟飞机,不是因为他罪恶滔天,而是他为了赶在女儿生日那天,亲手给女儿一份礼物而申请的一次飞行。他在狱中表现良好,典狱官答应了他这个请求。然而,却有一个难题——在这趟飞机上,还押送着一帮杀人狂魔。                                    
                                警探非常留神随时可能出现的危险,但防不胜防的是,飞行过程中那帮暴徒还是挟持了飞机上全部的警察,卡麦伦也被迫帮他们完成逃脱任务。                                    
                                地面的联邦部队决定把飞机打下,把狂徒一网打尽,身陷险境的卡麦伦该逃出这个空中监狱?

◎获奖情况 (共2项)
  第70届奥斯卡金像奖 (1998)
  最佳音响(提名)
  最佳原创歌曲(提名)
   └──戴安·沃伦 (id:1055621)

  1. ##### MediaInfo ######
  2. General
  3. Unique ID                                : 93455520339034502919728039215661591644 (0x464EE0E5F5F87F29C77B085E3FCC2C5C)
  4. Complete name                            : ConAir.1997.BluRay.1080p.x265.10bit.DDP5.1.REPACK2-MiniHD.mkv
  5. Format                                   : Matroska
  6. Format version                           : Version 4
  7. File size                                : 8.66 GiB
  8. Duration                                 : 1 h 55 min
  9. Overall bit rate                         : 10.7 Mb/s
  10. Movie name                               : Con Air [1997] BluRay 1080p - FRDS
  11. Encoded date                             : UTC 2022-06-14 02:30:38
  12. Writing application                      : mkvmerge v68.0.0 ('The Curtain') 64-bit
  13. Writing library                          : libebml v1.4.2 + libmatroska v1.6.4
  14. Video
  15. ID                                       : 1
  16. Format                                   : HEVC
  17. Format/Info                              : High Efficiency Video Coding
  18. Format profile                           : Main 10@L5.1@High
  19. Codec ID                                 : V_MPEGH/ISO/HEVC
  20. Duration                                 : 1 h 55 min
  21. Bit rate                                 : 8 737 kb/s
  22. Width                                    : 1 920 pixels
  23. Height                                   : 820 pixels
  24. Display aspect ratio                     : 2.35:1
  25. Frame rate mode                          : Constant
  26. Frame rate                               : 23.976 (24000/1001/53354) FPS
  27. Color space                              : YUV
  28. Chroma subsampling                       : 4:2:0
  29. Bit depth                                : 10 bits
  30. Bits/(Pixel*Frame)                       : 0.231
  31. Stream size                              : 7.04 GiB (81%)
  32. Writing library                          : x265 3.5+29-3415705dd:[Windows][MSVC 1930][64 bit] 10bit
  33. Encoding settings                        : cpuid=533541111039 / frame-threads=5 / numa-pools=32 / wpp / pmode / no-pme / no-psnr / no-ssim / log-level=2 / input-csp=1 / input-res=1920x820 / interlace=0 / total-frames=166034 / level-idc=0 / high-tier=1 / uhd-bd=0 / ref=6 / no-allow-non-conformance / no-repeat-headers / annexb / no-aud / no-eob / no-eos / no-hrd / info / hash=0 / no-temporal-layers / no-open-gop / min-keyint=1 / keyint=250 / gop-lookahead=0 / bframes=8 / b-adapt=2 / b-pyramid / bframe-bias=0 / rc-lookahead=100 / lookahead-slices=0 / NTMzNTQ=uuDQuD2mJt9fsCf / scenecut=40 / no-hist-scenecut / radl=0 / no-splice / no-intra-refresh / ctu=32 / min-cu-size=8 / no-rect / no-amp / max-tu-size=32 / tu-inter-depth=4 / tu-intra-depth=4 / limit-tu=0 / rdoq-level=2 / dynamic-rd=0.00 / no-ssim-rd / signhide / no-tskip / nr-intra=0 / nr-inter=0 / no-constrained-intra / no-strong-intra-smoothing / max-merge=5 / limit-refs=0 / no-limit-modes / me=3 / subme=7 / merange=57 / temporal-mvp / no-frame-dup / no-hme / weightp / weightb / no-analyze-src-pics / deblock=-3:-3 / no-sao / no-sao-non-deblock / rd=4 / selective-sao=0 / no-early-skip / no-rskip / no-fast-intra / no-tskip-fast / no-cu-lossless / b-intra / no-splitrd-skip / rdpenalty=0 / psy-rd=1.50 / psy-rdoq=1.00 / no-rd-refine / no-lossless / cbqpoffs=-2 / crqpoffs=-2 / rc=crf / crf=20.0 / qcomp=0.65 / qpstep=4 / stats-write=0 / stats-read=0 / vbv-maxrate=160000 / vbv-bufsize=160000 / vbv-init=0.9 / min-vbv-fullness=50.0 / max-vbv-fullness=80.0 / crf-max=0.0 / crf-min=0.0 / ipratio=1.30 / pbratio=1.20 / aq-mode=1 / aq-strength=1.00 / no-cutree / zone-count=0 / no-strict-cbr / qg-size=8 / no-rc-grain / qpmax=69 / qpmin=0 / no-const-vbv / sar=0 / overscan=0 / videoformat=5 / range=0 / colorprim=1 / transfer=1 / colormatrix=1 / chromaloc=0 / display-window=0 / cll=0,0 / min-luma=0 / max-luma=1023 / log2-max-poc-lsb=8 / vui-timing-info / vui-hrd-info / slices=1 / no-opt-qp-pps / no-opt-ref-list-length-pps / no-multi-pass-opt-rps / scenecut-bias=0.05 / hist-threshold=0.03 / no-opt-cu-delta-qp / no-aq-motion / no-hdr10 / no-hdr10-opt / no-dhdr10-opt / no-idr-recovery-sei / analysis-reuse-level=0 / analysis-save-reuse-level=0 / analysis-load-reuse-level=0 / scale-factor=0 / refine-intra=0 / refine-inter=0 / refine-mv=1 / refine-ctu-distortion=0 / no-limit-sao / ctu-info=0 / no-lowpass-dct / refine-analysis-type=0 / copy-pic=1 / max-ausize-factor=1.0 / no-dynamic-refine / no-single-sei / no-hevc-aq / no-svt / no-field / qp-adaptation-range=1.00 / scenecut-aware-qp=0conformance-window-offsets / right=0 / bottom=0 / NTMzNTQ= / decoder-max-rate=0 / no-vbv-live-multi-pass
  34. Default                                  : Yes
  35. Forced                                   : No
  36. Color range                              : Limited
  37. Color primaries                          : BT.709
  38. Transfer characteristics                 : BT.709
  39. Matrix coefficients                      : BT.709
  40. Audio #1
  41. ID                                       : 2
  42. Format                                   : E-AC-3
  43. Format/Info                              : Enhanced AC-3
  44. Commercial name                          : Dolby Digital Plus
  45. Codec ID                                 : A_EAC3
  46. Duration                                 : 1 h 55 min
  47. Bit rate mode                            : Constant
  48. Bit rate                                 : 1 024 kb/s
  49. Channel(s)                               : 6 channels
  50. Channel layout                           : L R C LFE Ls Rs
  51. Sampling rate                            : 48.0 kHz
  52. Frame rate                               : 31.250 FPS (1536 SPF)
  53. Compression mode                         : Lossy
  54. Stream size                              : 845 MiB (10%)
  55. Language                                 : English
  56. Service kind                             : Complete Main
  57. Default                                  : Yes
  58. Forced                                   : No
  59. Audio #2
  60. ID                                       : 3
  61. Format                                   : E-AC-3
  62. Format/Info                              : Enhanced AC-3
  63. Commercial name                          : Dolby Digital Plus
  64. Codec ID                                 : A_EAC3
  65. Duration                                 : 1 h 55 min
  66. Bit rate mode                            : Constant
  67. Bit rate                                 : 640 kb/s
  68. Channel(s)                               : 6 channels
  69. Channel layout                           : L R C LFE Ls Rs
  70. Sampling rate                            : 48.0 kHz
  71. Frame rate                               : 31.250 FPS (1536 SPF)
  72. Compression mode                         : Lossy
  73. Stream size                              : 528 MiB (6%)
  74. Language                                 : Chinese
  75. Service kind                             : Complete Main
  76. Default                                  : No
  77. Forced                                   : No
  78. Text #1
  79. ID                                       : 4
  80. Format                                   : PGS
  81. Muxing mode                              : zlib
  82. Codec ID                                 : S_HDMV/PGS
  83. Codec ID/Info                            : Picture based subtitle format used on BDs/HD-DVDs
  84. Duration                                 : 1 h 48 min
  85. Bit rate                                 : 80.4 kb/s
  86. Count of elements                        : 4096
  87. Stream size                              : 62.6 MiB (1%)
  88. Title                                    : Chs&Eng(特效)
  89. Language                                 : Chinese
  90. Default                                  : Yes
  91. Forced                                   : No
  92. Text #2
  93. ID                                       : 5
  94. Format                                   : PGS
  95. Muxing mode                              : zlib
  96. Codec ID                                 : S_HDMV/PGS
  97. Codec ID/Info                            : Picture based subtitle format used on BDs/HD-DVDs
  98. Duration                                 : 1 h 48 min
  99. Bit rate                                 : 73.9 kb/s
  100. Count of elements                        : 3236
  101. Stream size                              : 57.6 MiB (1%)
  102. Title                                    : Cht&Eng(特效)
  103. Language                                 : Chinese
  104. Default                                  : Yes
  105. Forced                                   : No
  106. Text #3
  107. ID                                       : 6
  108. Format                                   : PGS
  109. Muxing mode                              : zlib
  110. Codec ID                                 : S_HDMV/PGS
  111. Codec ID/Info                            : Picture based subtitle format used on BDs/HD-DVDs
  112. Duration                                 : 1 h 49 min
  113. Bit rate                                 : 323 kb/s
  114. Count of elements                        : 10340
  115. Stream size                              : 252 MiB (3%)
  116. Title                                    : Chs&Eng(特效 by kevenbjx@cnlang)
  117. Language                                 : Chinese
  118. Default                                  : Yes
  119. Forced                                   : No
  120. Text #4
  121. ID                                       : 7
  122. Format                                   : SSA
  123. Codec ID                                 : S_TEXT/SSA
  124. Codec ID/Info                            : Sub Station Alpha
  125. Duration                                 : 1 h 47 min
  126. Bit rate                                 : 236 b/s
  127. Count of elements                        : 2384
  128. Compression mode                         : Lossless
  129. Stream size                              : 187 KiB (0%)
  130. Title                                    : Chs&Eng(特效)
  131. Language                                 : Chinese
  132. Default                                  : No
  133. Forced                                   : No
  134. Text #5
  135. ID                                       : 8
  136. Format                                   : PGS
  137. Muxing mode                              : zlib
  138. Codec ID                                 : S_HDMV/PGS
  139. Codec ID/Info                            : Picture based subtitle format used on BDs/HD-DVDs
  140. Duration                                 : 1 h 47 min
  141. Bit rate                                 : 28.0 kb/s
  142. Count of elements                        : 3006
  143. Stream size                              : 21.6 MiB (0%)
  144. Language                                 : Chinese
  145. Default                                  : Yes
  146. Forced                                   : No
  147. Text #6
  148. ID                                       : 9
  149. Format                                   : PGS
  150. Muxing mode                              : zlib
  151. Codec ID                                 : S_HDMV/PGS
  152. Codec ID/Info                            : Picture based subtitle format used on BDs/HD-DVDs
  153. Duration                                 : 1 h 47 min
  154. Bit rate                                 : 51.1 kb/s
  155. Count of elements                        : 3014
  156. Stream size                              : 39.4 MiB (0%)
  157. Language                                 : Chinese
  158. Default                                  : No
  159. Forced                                   : No
  160. Text #7
  161. ID                                       : 10
  162. Format                                   : PGS
  163. Muxing mode                              : zlib
  164. Codec ID                                 : S_HDMV/PGS
  165. Codec ID/Info                            : Picture based subtitle format used on BDs/HD-DVDs
  166. Duration                                 : 1 h 48 min
  167. Bit rate                                 : 60.0 kb/s
  168. Count of elements                        : 2512
  169. Stream size                              : 46.6 MiB (1%)
  170. Language                                 : English
  171. Default                                  : No
  172. Forced                                   : No
  173. Text #8
  174. ID                                       : 11
  175. Format                                   : UTF-8
  176. Codec ID                                 : S_TEXT/UTF8
  177. Codec ID/Info                            : UTF-8 Plain Text
  178. Duration                                 : 1 h 47 min
  179. Bit rate                                 : 73 b/s
  180. Count of elements                        : 923
  181. Stream size                              : 57.6 KiB (0%)
  182. Language                                 : Bulgarian
  183. Default                                  : No
  184. Forced                                   : No
  185. Text #9
  186. ID                                       : 12
  187. Format                                   : UTF-8
  188. Codec ID                                 : S_TEXT/UTF8
  189. Codec ID/Info                            : UTF-8 Plain Text
  190. Duration                                 : 1 h 47 min
  191. Bit rate                                 : 43 b/s
  192. Count of elements                        : 1129
  193. Stream size                              : 34.6 KiB (0%)
  194. Language                                 : Croatian
  195. Default                                  : No
  196. Forced                                   : No
  197. Text #10
  198. ID                                       : 13
  199. Format                                   : UTF-8
  200. Codec ID                                 : S_TEXT/UTF8
  201. Codec ID/Info                            : UTF-8 Plain Text
  202. Duration                                 : 1 h 47 min
  203. Bit rate                                 : 45 b/s
  204. Count of elements                        : 901
  205. Stream size                              : 35.9 KiB (0%)
  206. Language                                 : Czech
  207. Default                                  : No
  208. Forced                                   : No
  209. Text #11
  210. ID                                       : 14
  211. Format                                   : UTF-8
  212. Codec ID                                 : S_TEXT/UTF8
  213. Codec ID/Info                            : UTF-8 Plain Text
  214. Duration                                 : 1 h 47 min
  215. Bit rate                                 : 37 b/s
  216. Count of elements                        : 1005
  217. Stream size                              : 29.2 KiB (0%)
  218. Language                                 : Dutch
  219. Default                                  : No
  220. Forced                                   : No
  221. Text #12
  222. ID                                       : 15
  223. Format                                   : UTF-8
  224. Codec ID                                 : S_TEXT/UTF8
  225. Codec ID/Info                            : UTF-8 Plain Text
  226. Duration                                 : 1 h 48 min
  227. Bit rate                                 : 61 b/s
  228. Count of elements                        : 1192
  229. Stream size                              : 48.6 KiB (0%)
  230. Language                                 : English
  231. Default                                  : No
  232. Forced                                   : No
  233. Text #13
  234. ID                                       : 16
  235. Format                                   : UTF-8
  236. Codec ID                                 : S_TEXT/UTF8
  237. Codec ID/Info                            : UTF-8 Plain Text
  238. Duration                                 : 1 h 47 min
  239. Bit rate                                 : 42 b/s
  240. Count of elements                        : 846
  241. Stream size                              : 33.9 KiB (0%)
  242. Language                                 : French
  243. Default                                  : No
  244. Forced                                   : No
  245. Text #14
  246. ID                                       : 17
  247. Format                                   : UTF-8
  248. Codec ID                                 : S_TEXT/UTF8
  249. Codec ID/Info                            : UTF-8 Plain Text
  250. Duration                                 : 1 h 47 min
  251. Bit rate                                 : 47 b/s
  252. Count of elements                        : 1059
  253. Stream size                              : 37.3 KiB (0%)
  254. Language                                 : German
  255. Default                                  : No
  256. Forced                                   : No
  257. Text #15
  258. ID                                       : 18
  259. Format                                   : UTF-8
  260. Codec ID                                 : S_TEXT/UTF8
  261. Codec ID/Info                            : UTF-8 Plain Text
  262. Duration                                 : 1 h 47 min
  263. Bit rate                                 : 82 b/s
  264. Count of elements                        : 995
  265. Stream size                              : 64.9 KiB (0%)
  266. Language                                 : Greek
  267. Default                                  : No
  268. Forced                                   : No
  269. Text #16
  270. ID                                       : 19
  271. Format                                   : UTF-8
  272. Codec ID                                 : S_TEXT/UTF8
  273. Codec ID/Info                            : UTF-8 Plain Text
  274. Duration                                 : 1 h 47 min
  275. Bit rate                                 : 47 b/s
  276. Count of elements                        : 988
  277. Stream size                              : 37.6 KiB (0%)
  278. Language                                 : Hungarian
  279. Default                                  : No
  280. Forced                                   : No
  281. Text #17
  282. ID                                       : 20
  283. Format                                   : UTF-8
  284. Codec ID                                 : S_TEXT/UTF8
  285. Codec ID/Info                            : UTF-8 Plain Text
  286. Duration                                 : 1 h 47 min
  287. Bit rate                                 : 51 b/s
  288. Count of elements                        : 1163
  289. Stream size                              : 40.5 KiB (0%)
  290. Language                                 : Polish
  291. Default                                  : No
  292. Forced                                   : No
  293. Text #18
  294. ID                                       : 21
  295. Format                                   : UTF-8
  296. Codec ID                                 : S_TEXT/UTF8
  297. Codec ID/Info                            : UTF-8 Plain Text
  298. Duration                                 : 1 h 48 min
  299. Bit rate                                 : 49 b/s
  300. Count of elements                        : 1174
  301. Stream size                              : 39.5 KiB (0%)
  302. Language                                 : Portuguese
  303. Default                                  : No
  304. Forced                                   : No
  305. Text #19
  306. ID                                       : 22
  307. Format                                   : UTF-8
  308. Codec ID                                 : S_TEXT/UTF8
  309. Codec ID/Info                            : UTF-8 Plain Text
  310. Duration                                 : 1 h 47 min
  311. Bit rate                                 : 70 b/s
  312. Count of elements                        : 1221
  313. Stream size                              : 55.8 KiB (0%)
  314. Language                                 : Romanian
  315. Default                                  : No
  316. Forced                                   : No
  317. Text #20
  318. ID                                       : 23
  319. Format                                   : UTF-8
  320. Codec ID                                 : S_TEXT/UTF8
  321. Codec ID/Info                            : UTF-8 Plain Text
  322. Duration                                 : 1 h 47 min
  323. Bit rate                                 : 43 b/s
  324. Count of elements                        : 1128
  325. Stream size                              : 34.5 KiB (0%)
  326. Language                                 : Serbian
  327. Default                                  : No
  328. Forced                                   : No
  329. Text #21
  330. ID                                       : 24
  331. Format                                   : UTF-8
  332. Codec ID                                 : S_TEXT/UTF8
  333. Codec ID/Info                            : UTF-8 Plain Text
  334. Duration                                 : 1 h 47 min
  335. Bit rate                                 : 59 b/s
  336. Count of elements                        : 1169
  337. Stream size                              : 46.8 KiB (0%)
  338. Language                                 : Slovak
  339. Default                                  : No
  340. Forced                                   : No
  341. Text #22
  342. ID                                       : 25
  343. Format                                   : UTF-8
  344. Codec ID                                 : S_TEXT/UTF8
  345. Codec ID/Info                            : UTF-8 Plain Text
  346. Duration                                 : 1 h 47 min
  347. Bit rate                                 : 37 b/s
  348. Count of elements                        : 880
  349. Stream size                              : 29.3 KiB (0%)
  350. Language                                 : Slovenian
  351. Default                                  : No
  352. Forced                                   : No
  353. Text #23
  354. ID                                       : 26
  355. Format                                   : UTF-8
  356. Codec ID                                 : S_TEXT/UTF8
  357. Codec ID/Info                            : UTF-8 Plain Text
  358. Duration                                 : 1 h 47 min
  359. Bit rate                                 : 45 b/s
  360. Count of elements                        : 846
  361. Stream size                              : 35.8 KiB (0%)
  362. Language                                 : Swedish
  363. Default                                  : No
  364. Forced                                   : No
  365. Text #24
  366. ID                                       : 27
  367. Format                                   : UTF-8
  368. Codec ID                                 : S_TEXT/UTF8
  369. Codec ID/Info                            : UTF-8 Plain Text
  370. Duration                                 : 1 h 47 min
  371. Bit rate                                 : 65 b/s
  372. Count of elements                        : 1222
  373. Stream size                              : 51.6 KiB (0%)
  374. Language                                 : Turkish
  375. Default                                  : No
  376. Forced                                   : No
  377. Text #25
  378. ID                                       : 28
  379. Format                                   : UTF-8
  380. Codec ID                                 : S_TEXT/UTF8
  381. Codec ID/Info                            : UTF-8 Plain Text
  382. Duration                                 : 1 h 47 min
  383. Bit rate                                 : 92 b/s
  384. Count of elements                        : 1171
  385. Stream size                              : 72.8 KiB (0%)
  386. Language                                 : Ukrainian
  387. Default                                  : No
  388. Forced                                   : No
  389. Text #26
  390. ID                                       : 29
  391. Format                                   : UTF-8
  392. Codec ID                                 : S_TEXT/UTF8
  393. Codec ID/Info                            : UTF-8 Plain Text
  394. Duration                                 : 1 h 47 min
  395. Bit rate                                 : 84 b/s
  396. Count of elements                        : 1269
  397. Stream size                              : 66.9 KiB (0%)
  398. Language                                 : Vietnamese
  399. Default                                  : No
  400. Forced                                   : No
  401. Menu
  402. 00:00:00.000                             : en:Program Start
  403. 00:10:03.394                             : en:Going Home
  404. 00:28:25.912                             : en:Fire on Board
  405. 00:42:52.528                             : en:Everybody Freeze!
  406. 00:57:22.981                             : en:Discovering the Plan
  407. 01:09:02.596                             : en:Let's Go!
  408. 01:22:53.301                             : en:Sizing Up Poe
  409. 01:34:51.143                             : en:Personal Stuff
  410. 01:40:36.530                             : en:Put the Bunny Back
  411. 01:48:10.525                             : en:Lerner Field





此处一般会放置磁力链或种子下载链接,不过此链接需要注册会员才能看到,点击“立即注册”
磁力链下载【下载链接仅对注册会员开放,登陆后可见】
BT9527电影天堂 1、BT9527电影天堂提供的BT文件均来源于互联网抓取,只供网友学习交流、技术提升使用。
2、我们遵守BitTorrent点对点协议原则,任何版权问题请联系原资源发布商,我们不处理任何版权纠纷,谢谢!如有争议请联系邮箱:BT9527#hotmail.com(#换成@)
3、如果您发现某页面或地址有错误,请联系站长邮箱BT9527#hotmail.com(#换成@),我们会尽快处理。您的热心是对BT9527电影天堂最大的支持。
4、本站建议去正规影院观看电影以支持电影行业发展。
最新回复 (0)

你可以在 登录 or 注册 后,对此帖发表评论!

返回
发新帖