魔童[简体字幕].Brightburn.2019.BluRay.1080p.x265.10bit.DDP5.1-MiniHD 6.27GB

版主小s 5月前 433

✔资源类型:暂未分类   ✔电影年份:2019   ✔电影地区:欧美   ✔电影分类:恐怖

◎译  名 魔童 / 灵异乍现(台) / 明亮的燃烧 / 布莱特本 / 灼烧
◎片  名 Brightburn
◎年  代 2019
◎产  地 美国
◎类  别 恐怖
◎语  言 英语
◎上映日期 2019-05-24(美国)
◎IMDb链接 https://www.imdb.com/title/tt7752126/
◎豆瓣评分 5.7/10 (14306人评价)
◎豆瓣链接 https://movie.douban.com/subject/27608262/
◎片  长 91分钟
◎导  演 大卫·雅洛维斯基 David Yarovesky (id:1402488)
◎编  剧 布莱恩·戈恩 Brian Gunn (id:1317743)
       马克·戈恩 Mark Gunn (id:1317744)
◎演  员 伊丽莎白·班克斯 Elizabeth Banks (id:1004571)
       大卫·丹曼 David Denman (id:1087098)
       梅瑞迪斯·海格纳 Meredith Hagner (id:1245747)
       马特·琼斯 Matt Jones (id:1229142)
       詹尼佛·霍兰德 Jennifer Holland (id:1387847)
       贝基·瓦赫尔斯特罗姆 Becky Wahlstrom (id:1163230)
       特伦斯·罗斯摩尔 Terence Rosemore (id:1142633)
       史蒂芬·布莱克哈特 Stephen Blackehart (id:1037043)
       史蒂夫·阿吉 Steve Agee (id:1032405)
       杰克逊·艾顿 Jackson A. Dunn (id:1412334)
       安妮·汉弗莱 Annie Humphrey (id:1412338)
       克里斯蒂安·芬拉森 Christian Finlayson (id:1402626)
       艾美·亨特 Emmie Hunter (id:1412339)
       迈克·顿斯顿 Mike Dunston (id:1411287)
       詹姆斯·古恩 James Gunn (id:1092322)
       Dan Clifton Dan Clifton (id:1010306)
       布莱恩·戈恩 Brian Gunn (id:1317743)
       马克·戈恩 Mark Gunn (id:1317744)
       Nic Crawley Nic Crawley (id:1443635)
       迈克尔·达拉托尔 Michael Dallatorre (id:1222745)
       贾斯汀·罗利 Justin Raleigh (id:1470378)

◎简  介
  一对没有孩子的乡村夫妻从家附近的宇宙飞船里捡到了一个婴儿抚养长大,渐渐的发现这个孩子有点与众不同,各种超自然能力在他身上显现出来,他披上了斗篷...但穿上斗篷的不一定都是英雄...
  1. ##### MediaInfo ######
  2. General
  3. Unique ID                                : 101721218925761738307248143810232410612 (0x4C86CB4D78AC39F86A6BEFC2F54961F4)
  4. Complete name                            : Brightburn.2019.BluRay.1080p.x265.10bit.DDP5.1-MiniHD.mkv
  5. Format                                   : Matroska
  6. Format version                           : Version 4
  7. File size                                : 6.27 GiB
  8. Duration                                 : 1 h 30 min
  9. Overall bit rate                         : 9 910 kb/s
  10. Encoded date                             : UTC 2022-06-08 09:59:40
  11. Writing application                      : mkvmerge v68.0.0 ('The Curtain') 64-bit
  12. Writing library                          : libebml v1.4.2 + libmatroska v1.6.4
  13. Video
  14. ID                                       : 1
  15. Format                                   : HEVC
  16. Format/Info                              : High Efficiency Video Coding
  17. Format profile                           : Main 10@L5@High
  18. Codec ID                                 : V_MPEGH/ISO/HEVC
  19. Duration                                 : 1 h 30 min
  20. Bit rate                                 : 8 865 kb/s
  21. Width                                    : 1 920 pixels
  22. Height                                   : 804 pixels
  23. Display aspect ratio                     : 2.40:1
  24. Frame rate mode                          : Constant
  25. Frame rate                               : 23.976 (24000/1001/53354) FPS
  26. Color space                              : YUV
  27. Chroma subsampling                       : 4:2:0
  28. Bit depth                                : 10 bits
  29. Bits/(Pixel*Frame)                       : 0.240
  30. Stream size                              : 5.60 GiB (89%)
  31. Writing library                          : x265 3.5+20-17839cc0d:[Windows][GCC 11.2.0][64 bit] 10bit
  32. Encoding settings                        : cpuid=533541111039 / frame-threads=5 / numa-pools=24,24 / wpp / no-pmode / no-pme / no-psnr / no-ssim / log-level=2 / input-csp=1 / input-res=1920x804 / interlace=0 / total-frames=130200 / level-idc=0 / high-tier=1 / uhd-bd=0 / ref=5 / no-allow-non-conformance / no-repeat-headers / annexb / no-aud / no-eob / no-eos / no-hrd / info / hash=0 / no-temporal-layers / no-open-gop / min-keyint=23 / keyint=250 / gop-lookahead=0 / bframes=9 / b-adapt=2 / b-pyramid / bframe-bias=0 / rc-lookahead=60 / lookahead-slices=0 / NTMzNTQ=uuDQuD2mJt9fsCf / scenecut=40 / no-hist-scenecut / radl=0 / no-splice / no-intra-refresh / ctu=32 / min-cu-size=8 / no-rect / no-amp / max-tu-size=32 / tu-inter-depth=4 / tu-intra-depth=4 / limit-tu=0 / rdoq-level=2 / dynamic-rd=0.00 / no-ssim-rd / signhide / no-tskip / nr-intra=0 / nr-inter=0 / no-constrained-intra / no-strong-intra-smoothing / max-merge=5 / limit-refs=0 / no-limit-modes / me=3 / subme=5 / merange=57 / temporal-mvp / no-frame-dup / no-hme / weightp / weightb / no-analyze-src-pics / deblock=-1:-1 / no-sao / no-sao-non-deblock / rd=4 / selective-sao=0 / no-early-skip / no-rskip / no-fast-intra / no-tskip-fast / no-cu-lossless / b-intra / no-splitrd-skip / rdpenalty=0 / psy-rd=2.00 / psy-rdoq=5.00 / no-rd-refine / no-lossless / cbqpoffs=0 / crqpoffs=0 / rc=crf / crf=18.0 / qcomp=0.70 / qpstep=4 / stats-write=0 / stats-read=0 / vbv-maxrate=100000 / vbv-bufsize=100000 / vbv-init=0.9 / min-vbv-fullness=50.0 / max-vbv-fullness=80.0 / crf-max=0.0 / crf-min=0.0 / ipratio=1.40 / pbratio=1.30 / aq-mode=1 / aq-strength=0.90 / no-cutree / zone-count=0 / no-strict-cbr / qg-size=32 / no-rc-grain / qpmax=69 / qpmin=0 / no-const-vbv / sar=0 / overscan=0 / videoformat=5 / range=0 / colorprim=1 / transfer=1 / colormatrix=1 / chromaloc=0 / display-window=0 / cll=0,0 / min-luma=0 / max-luma=1023 / log2-max-poc-lsb=8 / vui-timing-info / vui-hrd-info / slices=1 / no-opt-qp-pps / no-opt-ref-list-length-pps / no-multi-pass-opt-rps / scenecut-bias=0.05 / hist-threshold=0.03 / no-opt-cu-delta-qp / no-aq-motion / no-hdr10 / no-hdr10-opt / no-dhdr10-opt / no-idr-recovery-sei / analysis-reuse-level=0 / analysis-save-reuse-level=0 / analysis-load-reuse-level=0 / scale-factor=0 / refine-intra=0 / refine-inter=0 / refine-mv=1 / refine-ctu-distortion=0 / no-limit-sao / ctu-info=0 / no-lowpass-dct / refine-analysis-type=0 / copy-pic=1 / max-ausize-factor=1.0 / no-dynamic-refine / no-single-sei / no-hevc-aq / no-svt / no-field / qp-adaptation-range=1.00 / scenecut-aware-qp=0conformance-window-offsets / right=0 / bottom=0 / NTMzNTQ= / decoder-max-rate=0 / no-vbv-live-multi-pass
  33. Default                                  : Yes
  34. Forced                                   : No
  35. Color range                              : Limited
  36. Color primaries                          : BT.709
  37. Transfer characteristics                 : BT.709
  38. Matrix coefficients                      : BT.709
  39. Audio
  40. ID                                       : 2
  41. Format                                   : E-AC-3
  42. Format/Info                              : Enhanced AC-3
  43. Commercial name                          : Dolby Digital Plus
  44. Codec ID                                 : A_EAC3
  45. Duration                                 : 1 h 30 min
  46. Bit rate mode                            : Constant
  47. Bit rate                                 : 1 024 kb/s
  48. Channel(s)                               : 6 channels
  49. Channel layout                           : L R C LFE Ls Rs
  50. Sampling rate                            : 48.0 kHz
  51. Frame rate                               : 31.250 FPS (1536 SPF)
  52. Compression mode                         : Lossy
  53. Stream size                              : 663 MiB (10%)
  54. Language                                 : English
  55. Service kind                             : Complete Main
  56. Default                                  : Yes
  57. Forced                                   : No
  58. Text
  59. ID                                       : 3
  60. ID in the original source medium         : 4617 (0x1209)
  61. Format                                   : PGS
  62. Muxing mode                              : zlib
  63. Codec ID                                 : S_HDMV/PGS
  64. Codec ID/Info                            : Picture based subtitle format used on BDs/HD-DVDs
  65. Duration                                 : 1 h 24 min
  66. Bit rate                                 : 38.6 kb/s
  67. Count of elements                        : 1305
  68. Stream size                              : 23.3 MiB (0%)
  69. Title                                    : chs&eng
  70. Language                                 : Chinese
  71. Default                                  : Yes
  72. Forced                                   : No
  73. Original source medium                   : Blu-ray
  74. Menu
  75. 00:00:00.000                             : Chapter01
  76. 00:03:20.700                             : Chapter02
  77. 00:07:04.632                             : Chapter03
  78. 00:12:30.791                             : Chapter04
  79. 00:17:47.066                             : Chapter05
  80. 00:24:23.170                             : Chapter06
  81. 00:30:28.910                             : Chapter07
  82. 00:38:06.784                             : Chapter08
  83. 00:43:11.672                             : Chapter09
  84. 00:49:25.796                             : Chapter10
  85. 00:56:53.535                             : Chapter11
  86. 01:00:12.358                             : Chapter12
  87. 01:05:22.126                             : Chapter13
  88. 01:08:16.092                             : Chapter14
  89. 01:12:20.586                             : Chapter15
  90. 01:17:28.894                             : Chapter16





此处一般会放置磁力链或种子下载链接,不过此链接需要注册会员才能看到,点击“立即注册”
磁力链下载【下载链接仅对注册会员开放,登陆后可见】
BT9527电影天堂 1、BT9527电影天堂提供的BT文件均来源于互联网抓取,只供网友学习交流、技术提升使用。
2、我们遵守BitTorrent点对点协议原则,任何版权问题请联系原资源发布商,我们不处理任何版权纠纷,谢谢!如有争议请联系邮箱:BT9527#hotmail.com(#换成@)
3、如果您发现某页面或地址有错误,请联系站长邮箱BT9527#hotmail.com(#换成@),我们会尽快处理。您的热心是对BT9527电影天堂最大的支持。
4、本站建议去正规影院观看电影以支持电影行业发展。
最新回复 (0)

你可以在 登录 or 注册 后,对此帖发表评论!

返回
发新帖