往日情怀[中文字幕].The.Way.We.Were.1973.2160p.AMZN.WEB-DL.x265.8bit.SDR.DTS-HD.MA.5.1-NOGRP 16.28GB

版主小s 5月前 239

◎译 名 往日情怀 / 俏郎君

◎片 名 The Way We Were

◎年 代 1973

◎产 地 美国

◎类 别 剧情 / 爱情

◎语 言 英语

◎上映日期 1973-10-17

◎IMDb链接 https://www.imdb.com/title/tt0070903/

◎豆瓣评分 8.2/10 (5776人评价)

◎豆瓣链接 https://movie.douban.com/subject/1292466/

◎片 长 118 分钟

◎导 演 西德尼·波拉克 Sydney Pollack (id:1010608)

◎编 剧 亚瑟·劳伦特斯 Arthur Laurents (id:1010037)

弗朗西斯·福特·科波拉 Francis Ford Coppola (id:1054419)

大卫·雷菲尔德 David Rayfiel (id:1295295)

◎演 员 芭芭拉·史翠珊 Barbra Streisand (id:1048139)

罗伯特·雷德福 Robert Redford (id:1053617)

洛伊丝·奇利斯 Lois Chiles (id:1000271)

詹姆斯·伍兹 James Woods (id:1002689)

苏珊·布莱克利 Susan Blakely (id:1049765)

John F. Burnett John F. Burnett (id:1279675)

多罗西·吉金斯 Dorothy Jeakins (id:1017048)

Gary Liddiard Gary Liddiard (id:1290022)

迈克尔·布里顿 Michael Britton (id:1279335)

◎简 介

本片以美国50年代美苏冷战时期为背景,围绕女主人公凯蒂·莫若斯凯(芭芭拉·史翠珊 Barbra Streisand饰)与男主人公哈贝尔·加德纳(罗伯特·雷德福 Robert Redford饰)讲述了一段由相识到相知相恋,却因彼此间个性和政治立场的差异而分手的爱情故事。凯蒂,性格倔强浓烈的左翼女生,在校担任青年政党联盟主席;而主张明哲保身的哈贝尔则是学校有名的运动和写作才子。两人顺理成章地走到一起,也不可避免地分道扬镳。许多年以后,哈贝尔在街头与凯蒂重逢,往日情怀,不禁涌上心头。

由著名导演西德尼·波拉克执导的影片《往日情怀》,根据阿琴·劳伦茨的小说改编而成。导演波拉克十分擅长反映当今社会的政治问题和揭露一些社会现实,而这部具有浓厚政治意味的好莱坞爱情片,更成为当时具有知识分子味道的代表作。波拉克一生导演了19部影片,共获得46项奥斯卡提名。本片则荣获...

◎获奖情况 (共6项)

第46届奥斯卡金像奖 (1974)

最佳女主角(提名)

└──芭芭拉·史翠珊 (id:1048139)

最佳摄影(提名)

└──哈利·斯特拉德 (id:1017009)

最佳艺术指导(提名)

最佳服装设计(提名)

剧情片最佳原创配乐

└──马文·哈姆利奇 (id:1019195)

最佳原创歌曲

  1. Video

  2. ID : 1

  3. Format : HEVC

  4. Format/Info : High Efficiency Video Coding

  5. Format profile : Main@L5@Main

  6. Codec ID : V_MPEGH/ISO/HEVC

  7. Duration : 1 h 58 min

  8. Bit rate : 15.0 Mb/s

  9. Width : 3 840 pixels

  10. Height : 1 600 pixels

  11. Display aspect ratio : 2.40:1

  12. Frame rate mode : Constant

  13. Frame rate : 23.976 (24000/1001/53354) FPS

  14. Standard : NTSC

  15. Color space : YUV

  16. Chroma subsampling : 4:2:0

  17. Bit depth : 8 bits

  18. Bits/(Pixel*Frame) : 0.102

  19. Stream size : 12.4 GiB (76%)

  20. Writing library : x265 0.0:[Linux][GCC 4.8.2][64 bit] 8bit+10bit+12bit

  21. Encoding settings : cpuid=533541050111 / frame-threads=2 / wpp / no-pmode / no-pme / psnr / ssim / log-level=2 / csvfn=/apollo/env/YoshiEncodingWorkflowActivitiesLinuxEncoding/var/tmp/247729645/d6a96ebb-f03b-46b0-adb6-eacef1d850c8/2dd730bb-98b4-40c6-b3c6-6197e28cfc38_video_2160p_15000kbps.csv / csv-log-level=2 / input-csp=1 / input-res=3840x1600 / interlace=0 / total-frames=0 / level-idc=50 / high-tier=1 / uhd-bd=0 / ref=5 / no-allow-non-conformance / no-repeat-headers / annexb / no-aud / no-hrd / info / hash=0 / no-temporal-layers / no-open-gop / min-keyint=61 / keyint=120 / bframes=8 / b-adapt=2 / b-pyramid / bframe-bias=0 / rc-lookahead=120 / lookahead-slices=4 / scenecut=0 / no-intra-refresh / ctu=64 / min-cu-size=8 / rect / amp / max-tu-size=32 / tu-inter-depth=4 / tu-intra-depth=4 / limit-tu=4 / rdoq-level=2 / dynamic-rd=0.00 / no-ssim-rd / signhide / tskip / nr-intra=100 / nr-inter=600 / no-constrained-intra / strong-intra-smoothing / max-merge=3 / limit-refs=3 / limit-modes / me=3 / subme=3 / merange=57 / temporal-mvp / weightp / weightb / no-analyze-src-pics / deblock=0:0 / no-sao / no-sao-non-deblock / rd=4 / no-early-skip / no-rskip / no-fast-intra / tskip-fast / no-cu-lossless / b-intra / rdpenalty=0 / psy-rd=4.00 / psy-rdoq=10.00 / no-rd-refine / analysis-reuse-mode=0 / no-lossless / cbqpoffs=0 / crqpoffs=0 / rc=crf / crf=25.0 / qcomp=0.60 / qpstep=1 / stats-write=0 / stats-read=0 / vbv-maxrate=15000 / vbv-bufsize=20000 / vbv-init=0.9 / crf-max=0.0 / crf-min=0.0 / ipratio=1.10 / pbratio=1.00 / aq-mode=0 / aq-strength=1.50 / no-cutree / zone-count=0 / no-strict-cbr / qg-size=32 / rc-grain / qpmax=69 / qpmin=0 / const-vbv / sar=1 / overscan=0 / videoformat=2 / range=0 / colorprim=1 / transfer=1 / colormatrix=1 / chromaloc=0 / display-window=0 / max-cll=0,0 / min-luma=0 / max-luma=255 / log2-max-poc-lsb=8 / vui-timing-info / vui-hrd-info / slices=1 / opt-qp-pps / opt-ref-list-length-pps / no-multi-pass-opt-rps / scenecut-bias=0.05 / no-opt-cu-delta-qp / no-aq-motion / no-hdr / no-hdr-opt / no-dhdr10-opt / analysis-reuse-level=5 / scale-factor=0 / refine-intra=0 / refine-inter=0 / refine-mv=0 / no-limit-sao / ctu-info=0

  22. Language : English

  23. Default : Yes

  24. Forced : No

  25. Color range : Limited

  26. Color primaries : BT.709

  27. Transfer characteristics : BT.709

  28. Matrix coefficients : BT.709


  29. Audio #1

  30. ID : 2

  31. Format : DTS XLL

  32. Format/Info : Digital Theater Systems

  33. Commercial name : DTS-HD Master Audio

  34. Codec ID : A_DTS

  35. Duration : 1 h 58 min

  36. Bit rate mode : Variable

  37. Bit rate : 3 714 kb/s

  38. Channel(s) : 6 channels

  39. Channel layout : C L R Ls Rs LFE

  40. Sampling rate : 48.0 kHz

  41. Frame rate : 93.750 FPS (512 SPF)

  42. Bit depth : 24 bits

  43. Compression mode : Lossless

  44. Delay relative to video : 1 s 0 ms

  45. Stream size : 3.07 GiB (19%)

  46. Title : DTS-HD Master Audio / 5.1 / 48 kHz / 3714 kbps / 24-bit

  47. Language : English

  48. Default : Yes

  49. Forced : No


  50. Audio #2

  51. ID : 3

  52. Format : AC-3

  53. Format/Info : Audio Coding 3

  54. Commercial name : Dolby Digital

  55. Codec ID : A_AC3

  56. Duration : 1 h 58 min

  57. Bit rate mode : Constant

  58. Bit rate : 640 kb/s

  59. Channel(s) : 6 channels

  60. Channel layout : L R C LFE Ls Rs

  61. Sampling rate : 48.0 kHz

  62. Frame rate : 31.250 FPS (1536 SPF)

  63. Compression mode : Lossy

  64. Delay relative to video : 1 s 0 ms

  65. Stream size : 541 MiB (3%)

  66. Language : English

  67. Service kind : Complete Main

  68. Default : Yes

  69. Forced : No


  70. Audio #3

  71. ID : 4

  72. Format : AAC LC

  73. Format/Info : Advanced Audio Codec Low Complexity

  74. Codec ID : A_AAC-2

  75. Duration : 1 h 58 min

  76. Bit rate : 125 kb/s

  77. Channel(s) : 2 channels

  78. Channel layout : L R

  79. Sampling rate : 48.0 kHz

  80. Frame rate : 46.875 FPS (1024 SPF)

  81. Compression mode : Lossy

  82. Stream size : 106 MiB (1%)

  83. Language : English

  84. Default : Yes

  85. Forced : No


  86. Text #1

  87. ID : 5

  88. Format : UTF-8

  89. Codec ID : S_TEXT/UTF8

  90. Codec ID/Info : UTF-8 Plain Text

  91. Duration : 1 h 57 min

  92. Bit rate : 57 b/s

  93. Count of elements : 1343

  94. Stream size : 49.4 KiB (0%)

  95. Language : English

  96. Default : Yes

  97. Forced : No


  98. Text #2

  99. ID : 6

  100. Format : UTF-8

  101. Codec ID : S_TEXT/UTF8

  102. Codec ID/Info : UTF-8 Plain Text

  103. Duration : 1 h 57 min

  104. Bit rate : 60 b/s

  105. Count of elements : 1412

  106. Stream size : 51.8 KiB (0%)

  107. Title : SDH

  108. Language : English

  109. Default : No

  110. Forced : No


  111. Text #3

  112. ID : 7

  113. Format : PGS

  114. Muxing mode : zlib

  115. Codec ID : S_HDMV/PGS

  116. Codec ID/Info : Picture based subtitle format used on BDs/HD-DVDs

  117. Duration : 1 h 55 min

  118. Bit rate : 27.7 kb/s

  119. Count of elements : 2538

  120. Stream size : 23.0 MiB (0%)

  121. Language : English

  122. Default : No

  123. Forced : No


  124. Text #4

  125. ID : 8

  126. Format : PGS

  127. Muxing mode : zlib

  128. Codec ID : S_HDMV/PGS

  129. Codec ID/Info : Picture based subtitle format used on BDs/HD-DVDs

  130. Duration : 1 h 57 min

  131. Bit rate : 21.5 kb/s

  132. Count of elements : 2968

  133. Stream size : 18.1 MiB (0%)

  134. Title : SDH

  135. Language : English

  136. Default : No

  137. Forced : No


  138. Text #5

  139. ID : 9

  140. Format : PGS

  141. Muxing mode : zlib

  142. Codec ID : S_HDMV/PGS

  143. Codec ID/Info : Picture based subtitle format used on BDs/HD-DVDs

  144. Duration : 1 h 55 min

  145. Bit rate : 15.6 kb/s

  146. Count of elements : 2484

  147. Stream size : 13.0 MiB (0%)

  148. Language : Arabic

  149. Default : No

  150. Forced : No


  151. Text #6

  152. ID : 10

  153. Format : PGS

  154. Muxing mode : zlib

  155. Codec ID : S_HDMV/PGS

  156. Codec ID/Info : Picture based subtitle format used on BDs/HD-DVDs

  157. Duration : 1 h 55 min

  158. Bit rate : 25.9 kb/s

  159. Count of elements : 1872

  160. Stream size : 21.5 MiB (0%)

  161. Title : Traditional

  162. Language : Chinese

  163. Default : No

  164. Forced : No


  165. Text #7

  166. ID : 11

  167. Format : PGS

  168. Muxing mode : zlib

  169. Codec ID : S_HDMV/PGS

  170. Codec ID/Info : Picture based subtitle format used on BDs/HD-DVDs

  171. Duration : 1 h 55 min

  172. Bit rate : 24.6 kb/s

  173. Count of elements : 2506

  174. Stream size : 20.4 MiB (0%)

  175. Language : Czech

  176. Default : No

  177. Forced : No


  178. Text #8

  179. ID : 12

  180. Format : PGS

  181. Muxing mode : zlib

  182. Codec ID : S_HDMV/PGS

  183. Codec ID/Info : Picture based subtitle format used on BDs/HD-DVDs

  184. Duration : 1 h 55 min

  185. Bit rate : 23.8 kb/s

  186. Count of elements : 1964

  187. Stream size : 19.8 MiB (0%)

  188. Language : Danish

  189. Default : No

  190. Forced : No


  191. Text #9

  192. ID : 13

  193. Format : PGS

  194. Muxing mode : zlib

  195. Codec ID : S_HDMV/PGS

  196. Codec ID/Info : Picture based subtitle format used on BDs/HD-DVDs

  197. Duration : 1 h 55 min

  198. Bit rate : 25.9 kb/s

  199. Count of elements : 2357

  200. Stream size : 21.4 MiB (0%)

  201. Language : Dutch

  202. Default : No

  203. Forced : No


  204. Text #10

  205. ID : 14

  206. Format : PGS

  207. Muxing mode : zlib

  208. Codec ID : S_HDMV/PGS

  209. Codec ID/Info : Picture based subtitle format used on BDs/HD-DVDs

  210. Duration : 1 h 55 min

  211. Bit rate : 24.1 kb/s

  212. Count of elements : 1652

  213. Stream size : 20.0 MiB (0%)

  214. Language : Finnish

  215. Default : No

  216. Forced : No


  217. Text #11

  218. ID : 15

  219. Format : PGS

  220. Muxing mode : zlib

  221. Codec ID : S_HDMV/PGS

  222. Codec ID/Info : Picture based subtitle format used on BDs/HD-DVDs

  223. Duration : 1 h 57 min

  224. Bit rate : 23.0 kb/s

  225. Count of elements : 2432

  226. Stream size : 19.3 MiB (0%)

  227. Language : French

  228. Default : No

  229. Forced : No


  230. Text #12

  231. ID : 16

  232. Format : PGS

  233. Muxing mode : zlib

  234. Codec ID : S_HDMV/PGS

  235. Codec ID/Info : Picture based subtitle format used on BDs/HD-DVDs

  236. Duration : 1 h 55 min

  237. Bit rate : 31.5 kb/s

  238. Count of elements : 2488

  239. Stream size : 26.1 MiB (0%)

  240. Language : German

  241. Default : No

  242. Forced : No


  243. Text #13

  244. ID : 17

  245. Format : PGS

  246. Muxing mode : zlib

  247. Codec ID : S_HDMV/PGS

  248. Codec ID/Info : Picture based subtitle format used on BDs/HD-DVDs

  249. Duration : 1 h 56 min

  250. Bit rate : 24.9 kb/s

  251. Count of elements : 2538

  252. Stream size : 20.7 MiB (0%)

  253. Language : Greek

  254. Default : No

  255. Forced : No


  256. Text #14

  257. ID : 18

  258. Format : PGS

  259. Muxing mode : zlib

  260. Codec ID : S_HDMV/PGS

  261. Codec ID/Info : Picture based subtitle format used on BDs/HD-DVDs

  262. Duration : 1 h 55 min

  263. Bit rate : 21.5 kb/s

  264. Count of elements : 2442

  265. Stream size : 17.8 MiB (0%)

  266. Language : Hebrew

  267. Default : No

  268. Forced : No


  269. Text #15

  270. ID : 19

  271. Format : PGS

  272. Muxing mode : zlib

  273. Codec ID : S_HDMV/PGS

  274. Codec ID/Info : Picture based subtitle format used on BDs/HD-DVDs

  275. Duration : 1 h 55 min

  276. Bit rate : 21.6 kb/s

  277. Count of elements : 2506

  278. Stream size : 17.9 MiB (0%)

  279. Language : Hindi

  280. Default : No

  281. Forced : No


  282. Text #16

  283. ID : 20

  284. Format : PGS

  285. Muxing mode : zlib

  286. Codec ID : S_HDMV/PGS

  287. Codec ID/Info : Picture based subtitle format used on BDs/HD-DVDs

  288. Duration : 1 h 55 min

  289. Bit rate : 23.9 kb/s

  290. Count of elements : 2552

  291. Stream size : 19.8 MiB (0%)

  292. Language : Hungarian

  293. Default : No

  294. Forced : No


  295. Text #17

  296. ID : 21

  297. Format : PGS

  298. Muxing mode : zlib

  299. Codec ID : S_HDMV/PGS

  300. Codec ID/Info : Picture based subtitle format used on BDs/HD-DVDs

  301. Duration : 1 h 55 min

  302. Bit rate : 26.9 kb/s

  303. Count of elements : 2506

  304. Stream size : 22.3 MiB (0%)

  305. Language : Italian

  306. Default : No

  307. Forced : No


  308. Text #18

  309. ID : 22

  310. Format : PGS

  311. Muxing mode : zlib

  312. Codec ID : S_HDMV/PGS

  313. Codec ID/Info : Picture based subtitle format used on BDs/HD-DVDs

  314. Duration : 1 h 57 min

  315. Bit rate : 19.2 kb/s

  316. Count of elements : 2263

  317. Stream size : 16.1 MiB (0%)

  318. Language : Japanese

  319. Default : No

  320. Forced : No


  321. Text #19

  322. ID : 23

  323. Format : PGS

  324. Muxing mode : zlib

  325. Codec ID : S_HDMV/PGS

  326. Codec ID/Info : Picture based subtitle format used on BDs/HD-DVDs

  327. Duration : 1 h 55 min

  328. Bit rate : 19.2 kb/s

  329. Count of elements : 1917

  330. Stream size : 16.0 MiB (0%)

  331. Language : Korean

  332. Default : No

  333. Forced : No


  334. Text #20

  335. ID : 24

  336. Format : PGS

  337. Muxing mode : zlib

  338. Codec ID : S_HDMV/PGS

  339. Codec ID/Info : Picture based subtitle format used on BDs/HD-DVDs

  340. Duration : 1 h 55 min

  341. Bit rate : 22.7 kb/s

  342. Count of elements : 1698

  343. Stream size : 18.9 MiB (0%)

  344. Language : Norwegian

  345. Default : No

  346. Forced : No


  347. Text #21

  348. ID : 25

  349. Format : PGS

  350. Muxing mode : zlib

  351. Codec ID : S_HDMV/PGS

  352. Codec ID/Info : Picture based subtitle format used on BDs/HD-DVDs

  353. Duration : 1 h 55 min

  354. Bit rate : 23.4 kb/s

  355. Count of elements : 2462

  356. Stream size : 19.4 MiB (0%)

  357. Language : Polish

  358. Default : No

  359. Forced : No


  360. Text #22

  361. ID : 26

  362. Format : PGS

  363. Muxing mode : zlib

  364. Codec ID : S_HDMV/PGS

  365. Codec ID/Info : Picture based subtitle format used on BDs/HD-DVDs

  366. Duration : 1 h 56 min

  367. Bit rate : 29.5 kb/s

  368. Count of elements : 2377

  369. Stream size : 24.7 MiB (0%)

  370. Language : Portuguese

  371. Default : No

  372. Forced : No


  373. Text #23

  374. ID : 27

  375. Format : PGS

  376. Muxing mode : zlib

  377. Codec ID : S_HDMV/PGS

  378. Codec ID/Info : Picture based subtitle format used on BDs/HD-DVDs

  379. Duration : 1 h 55 min

  380. Bit rate : 25.2 kb/s

  381. Count of elements : 2554

  382. Stream size : 20.9 MiB (0%)

  383. Title : Castilian

  384. Language : Spanish

  385. Default : No

  386. Forced : No


  387. Text #24

  388. ID : 28

  389. Format : PGS

  390. Muxing mode : zlib

  391. Codec ID : S_HDMV/PGS

  392. Codec ID/Info : Picture based subtitle format used on BDs/HD-DVDs

  393. Duration : 1 h 55 min

  394. Bit rate : 31.8 kb/s

  395. Count of elements : 2603

  396. Stream size : 26.4 MiB (0%)

  397. Title : Latin American

  398. Language : Spanish

  399. Default : No

  400. Forced : No


  401. Text #25

  402. ID : 29

  403. Format : PGS

  404. Muxing mode : zlib

  405. Codec ID : S_HDMV/PGS

  406. Codec ID/Info : Picture based subtitle format used on BDs/HD-DVDs

  407. Duration : 1 h 55 min

  408. Bit rate : 23.7 kb/s

  409. Count of elements : 1726

  410. Stream size : 19.7 MiB (0%)

  411. Language : Swedish

  412. Default : No

  413. Forced : No


  414. Text #26

  415. ID : 30

  416. Format : PGS

  417. Muxing mode : zlib

  418. Codec ID : S_HDMV/PGS

  419. Codec ID/Info : Picture based subtitle format used on BDs/HD-DVDs

  420. Duration : 1 h 55 min

  421. Bit rate : 22.9 kb/s

  422. Count of elements : 1714

  423. Stream size : 19.0 MiB (0%)

  424. Language : Thai

  425. Default : No

  426. Forced : No


  427. Text #27

  428. ID : 31

  429. Format : PGS

  430. Muxing mode : zlib

  431. Codec ID : S_HDMV/PGS

  432. Codec ID/Info : Picture based subtitle format used on BDs/HD-DVDs

  433. Duration : 1 h 55 min

  434. Bit rate : 25.3 kb/s

  435. Count of elements : 2516

  436. Stream size : 21.0 MiB (0%)

  437. Language : Turkish

  438. Default : No

  439. Forced : No


  440. Menu

  441. 00:00:02.000 : en:Scene 1 a?? Studio Logos

  442. 00:00:13.000 : en:Scene 2 a?? Katie works in studio, studio

  443. 00:02:32.000 : en:Scene 3 a?? Katie runs into old college crush, bar

  444. 00:05:41.000 : en:Scene 4 a?? Montage of college, college

  445. 00:09:10.000 : en:Scene 5 a?? Katie makes speech for college, field

  446. 00:13:03.000 : en:Scene 6 a?? Hubbell tries to make light with Katie, diner

  447. 00:15:51.000 : en:Scene 7 a?? Hubbell\'s story is praised over Katie\'s, classroom

  448. 00:19:18.000 : en:Scene 8 a?? Hubbell breaks down some of Katie\'s walls, street cafe

  449. 00:24:20.000 : en:Scene 9 a?? Katie caters party with Frankie, dance

  450. 00:26:50.000 : en:Scene 10 a?? Hubbell cuts in to dance with Katie, dance

  451. 00:28:45.000 : en:Scene 11 a?? Katie asks drunk Hubbell for coffee, bar

  452. 00:30:23.000 : en:Scene 12 a?? Hubbell passes out at Katie\'s, Katie\'s apartment

  453. 00:32:54.000 : en:Scene 13 a?? Katie and drunk Hubbell sleep together, bedroom

  454. 00:37:26.000 : en:Scene 14 a?? Katie and Hubbell have awkward morning, Katie\'s apartment

  455. 00:40:42.000 : en:Scene 15 a?? Katie goes to multiple jobs, multiple locations

  456. 00:42:04.000 : en:Scene 16 a?? Hubbell comes to town, multiple locations

  457. 00:44:12.000 : en:Scene 17 a?? Hubbell stays for dinner, Katie\'s apartment

  458. 00:45:58.000 : en:Scene 18 a?? Hubbell and Katie share first real kiss over book, Katie\'s apartment

  459. 00:49:18.000 : en:Scene 19 a?? Montage of budding relationship, multiple locations

  460. 00:50:29.000 : en:Scene 20 a?? Katie feels out of place with old classmates, party

  461. 00:52:45.000 : en:Scene 21 a?? Katie can\'t laugh at Hubbell\'s friends\' jokes, party

  462. 00:53:54.000 : en:Scene 22 a?? Hubbell starts writing second book, restaurant

  463. 00:54:55.000 : en:Scene 23 a?? Katie loves new book, multiple locations

  464. 00:57:38.000 : en:Scene 24 a?? Hubbell and Katie have fight at party, party

  465. 01:01:09.000 : en:Scene 25 a?? Hubbell breaks it off with Katie, studio

  466. 01:05:15.000 : en:Scene 26 a?? Katie calls Hubbell, Katie\'s apartment

  467. 01:09:22.000 : en:Scene 27 a?? Katie and Hubbell make up, Katie\'s apartment

  468. 01:13:32.000 : en:Scene 28 a?? Katie and Hubbell move to California, new house

  469. 01:16:04.000 : en:Scene 29 a?? Katie meets Hubbell\'s rich director, yard

  470. 01:17:56.000 : en:Scene 30 a?? Katie and Hubbell go to a Marx party, fancy home

  471. 01:19:22.000 : en:Scene 31 a?? Katie tells Hubbell she\'s pregnant, new home

  472. 01:22:06.000 : en:Scene 32 a?? Hubbell and Katie enjoy new life, beach

  473. 01:23:15.000 : en:Scene 33 a?? Rich friends are being bugged, movie screening

  474. 01:26:09.000 : en:Scene 34 a?? Hubbell and JJ talk without saying much, office

  475. 01:28:51.000 : en:Scene 35 a?? Hubbell doesn\'t like Katie going to DC, Malibu home

  476. 01:30:48.000 : en:Scene 36 a?? Hubbell begins to appreciate Katie\'s passion, JJ\'s

  477. 01:32:01.000 : en:Scene 37 a?? Katie speaks out Hubble throws punch, picket

  478. 01:33:44.000 : en:Scene 38 a?? Katie and Hubbell have worse fight, empty restaurant

  479. 01:35:55.000 : en:Scene 39 a?? Blacklisting comes out in the open, Paula\'s home

  480. 01:37:16.000 : en:Scene 40 a?? Hubbell compromises on screen play, George\'s office

  481. 01:38:58.000 : en:Scene 41 a?? Carol Ann makes a pass at Hubbell, stairs

  482. 01:40:13.000 : en:Scene 42 a?? Katie confronts Hubbell about affair, theater

  483. 01:45:37.000 : en:Scene 43 a?? JJ shows respect for Katie, boat

  484. 01:47:47.000 : en:Scene 44 a?? Katie asks Hubbell to stay through pregnancy, home

  485. 01:50:09.000 : en:Scene 45 a?? Katie has baby and knows it is the end, hospital

  486. 01:51:59.000 : en:Scene 46 a?? Katie and Hubbell go live separate lives, NYC street

  487. 01:54:00.000 : en:Scene 47 a?? Hubble and Katie still love each other, NYC street

  488. 01:57:13.000 : en:Scene 48 a?? End Credits

复制代码

  


磁力链:
  • magnet:?xt=urn:btih:50960E0D36FE0FA4C35F332DE55F0640977EF4CF
上传的附件:
BT9527电影天堂 1、BT9527电影天堂提供的BT文件均来源于互联网抓取,只供网友学习交流、技术提升使用。
2、我们遵守BitTorrent点对点协议原则,任何版权问题请联系原资源发布商,我们不处理任何版权纠纷,谢谢!如有争议请联系邮箱:BT9527#hotmail.com(#换成@)
3、如果您发现某页面或地址有错误,请联系站长邮箱BT9527#hotmail.com(#换成@),我们会尽快处理。您的热心是对BT9527电影天堂最大的支持。
4、本站建议去正规影院观看电影以支持电影行业发展。
最新回复 (0)

你可以在 登录 or 注册 后,对此帖发表评论!

返回
发新帖