酷爱电影的庞波小姐[中文字幕].Pompo.The.Cinephile.2021.JAPANESE.1080p.BluRay.x264.DD5.1-BdC 4.11GB

版主小s 5月前 275

◎标 题 酷爱电影的庞波小姐

◎译 名 Pompo: The Cinéphile / Eiga daisuki Pompo-san

◎片 名 映画大好きポンポさん

◎年 代 2021

◎产 地 日本

◎类 别 动画

◎语 言 日语

◎上映日期 2021-06-04(日本) / 2021-06-15(上海国际电影节)

◎IMDb评分 7/10 (408人评价)

◎IMDb链接 https://www.imdb.com/title/tt12439248/

◎豆瓣评分 7.5/10 (2264人评价)

◎豆瓣链接 https://movie.douban.com/subject/30037194/

◎片 长 90分钟

◎导 演 平尾隆之 Takayuki Hirao

◎编 剧 平尾隆之 Takayuki Hirao

◎演 员 清水寻也 Hiroya Shimizu

小原好美 Konomi Kohara

大谷凜香 Rinka Otani

加隈亚衣 Ai Kakuma

大塚明夫 Akio Ôtsuka

木岛隆一 Ryuuichi Kijima

小山力也 Rikiya Koyama

坂卷学 Sakamaki Manabu

小形满 Mitsuru Ogata

宇垣秀成 Hidenari Ugaki

高桥伸也 Takahashi Shinya

清水彩香 Ayaka Shimizu

谷育子 Ikuko Tani

永野善一 Nagano Yoshikazu

大林隆介 Ryûnosuke Ôbayashi

野水伊织 Iori Nomizu

雪野五月 Satsuki Yukino

中田让治 Jôji Nakata

杉山里穗 Sugiyama Riho

足立慎吾 Shingo Adachi

◎简 介

庞波小姐是干练的电影制作人。

她能看出演员及工作人员的潜力,让他们发挥十二成才华,简直可谓大萤幕之子。

尽管她日夜都在电影之城喵莱坞用心制片,拍的却尽是B级卖肉动作片……

担任其助手的青年「电影痴」吉恩对此有疑问,而庞波小姐亲手策画的脚本

就在某天交到了他手上。而且,导演还吩咐:「这部片子要交给你拍。」

吉恩能拍出庞波小姐所说的「名作」吗。

  1. Video

  2. ID : 1

  3. Format : AVC

  4. Format/Info : Advanced Video Codec

  5. Format profile : High@L4.1

  6. Format settings : CABAC / 4 Ref Frames

  7. Format settings, CABAC : Yes

  8. Format settings, Reference frames : 4 frames

  9. Codec ID : V_MPEG4/ISO/AVC

  10. Duration : 1 h 34 min

  11. Bit rate : 5 499 kb/s

  12. Width : 1 920 pixels

  13. Height : 1 036 pixels

  14. Display aspect ratio : 1.85:1

  15. Frame rate mode : Constant

  16. Frame rate : 23.976 (24000/1001/53354) FPS

  17. Color space : YUV

  18. Chroma subsampling : 4:2:0

  19. Bit depth : 8 bits

  20. Scan type : Progressive

  21. Bits/(Pixel*Frame) : 0.115

  22. Stream size : 3.62 GiB (88%)

  23. Writing library : x264 core 161 r3033 0d754ec

  24. Encoding settings : cabac=1 / ref=4 / deblock=1:-3:-3 / analyse=0x3:0x133 / me=umh / subme=10 / psy=1 / psy_rd=1.00:0.00 / mixed_ref=1 / me_range=32 / chroma_me=1 / trellis=2 / 8x8dct=1 / cqm=0 / deadzone=21,11 / fast_pskip=0 / chroma_qp_offset=-2 / threads=12 / lookahead_threads=2 / sliced_threads=0 / nr=0 / decimate=0 / interlaced=0 / NTMzNTQ= / bluray_compat=0 / constrained_intra=0 / bframes=8 / b_pyramid=2 / b_adapt=2 / b_bias=0 / direct=3 / weightb=1 / open_gop=0 / weightp=2 / keyint=240 / keyint_min=23 / NTMzNTQ=uuDQuD2mJt9fsCf / scenecut=40 / intra_refresh=0 / rc_lookahead=60 / rc=2pass / mbtree=0 / bitrate=5499 / ratetol=1.0 / qcomp=0.60 / qpmin=0 / qpmax=69 / qpstep=4 / cplxblur=20.0 / qblur=0.5 / vbv_maxrate=62500 / vbv_bufsize=78125 / nal_hrd=none / filler=0 / NTMzNTQ=LmsMAP37EqsCpk / ip_ratio=1.40 / pb_ratio=1.30 / aq=3:0.80

  25. Default : Yes

  26. Forced : No

  27. Color range : Limited

  28. Color primaries : BT.709

  29. Transfer characteristics : BT.709

  30. Matrix coefficients : BT.709


  31. Audio

  32. ID : 2

  33. Format : AC-3

  34. Format/Info : Audio Coding 3

  35. Commercial name : Dolby Digital

  36. Codec ID : A_AC3

  37. Duration : 1 h 34 min

  38. Bit rate mode : Constant

  39. Bit rate : 640 kb/s

  40. Channel(s) : 6 channels

  41. Channel layout : L R C LFE Ls Rs

  42. Sampling rate : 48.0 kHz

  43. Frame rate : 31.250 FPS (1536 SPF)

  44. Compression mode : Lossy

  45. Stream size : 431 MiB (10%)

  46. Language : Japanese

  47. Service kind : Complete Main

  48. Default : Yes

  49. Forced : No


  50. Text #1

  51. ID : 3

  52. Format : ASS

  53. Codec ID : S_TEXT/ASS

  54. Codec ID/Info : Advanced Sub Station Alpha

  55. Duration : 1 h 30 min

  56. Bit rate : 89 b/s

  57. Count of elements : 1223

  58. Compression mode : Lossless

  59. Stream size : 59.1 KiB (0%)

  60. Language : English

  61. Default : No

  62. Forced : No


  63. Text #2

  64. ID : 4

  65. Format : ASS

  66. Codec ID : S_TEXT/ASS

  67. Codec ID/Info : Advanced Sub Station Alpha

  68. Duration : 1 h 30 min

  69. Bit rate : 111 b/s

  70. Count of elements : 1278

  71. Compression mode : Lossless

  72. Stream size : 73.7 KiB (0%)

  73. Language : Turkish

  74. Default : Yes

  75. Forced : No


  76. Text #3

  77. ID : 5

  78. Format : ASS

  79. Codec ID : S_TEXT/ASS

  80. Codec ID/Info : Advanced Sub Station Alpha

  81. Duration : 1 h 30 min

  82. Bit rate : 97 b/s

  83. Count of elements : 1198

  84. Compression mode : Lossless

  85. Stream size : 64.5 KiB (0%)

  86. Language : Chinese

  87. Default : No

  88. Forced : No


  89. Text #4

  90. ID : 6

  91. Format : PGS

  92. Muxing mode : zlib

  93. Codec ID : S_HDMV/PGS

  94. Codec ID/Info : Picture based subtitle format used on BDs/HD-DVDs

  95. Duration : 1 h 33 min

  96. Bit rate : 273 kb/s

  97. Count of elements : 10706

  98. Stream size : 183 MiB (4%)

  99. Language : Japanese

  100. Default : No

  101. Forced : No


  102. Menu

  103. 00:00:00.000 : :Chapter 01

  104. 00:01:02.604 : :Chapter 02

  105. 00:02:34.529 : :Chapter 03

  106. 00:22:53.038 : :Chapter 04

  107. 00:34:38.702 : :Chapter 05

  108. 00:45:32.396 : :Chapter 06

  109. 01:06:01.499 : :Chapter 07

  110. 01:30:33.928 : :Chapter 08

复制代码

  


磁力链:
  • magnet:?xt=urn:btih:EF8D89A807E9ACFE74195435336C1DF316B94A74
上传的附件:
BT9527电影天堂 1、BT9527电影天堂提供的BT文件均来源于互联网抓取,只供网友学习交流、技术提升使用。
2、我们遵守BitTorrent点对点协议原则,任何版权问题请联系原资源发布商,我们不处理任何版权纠纷,谢谢!如有争议请联系邮箱:BT9527#hotmail.com(#换成@)
3、如果您发现某页面或地址有错误,请联系站长邮箱BT9527#hotmail.com(#换成@),我们会尽快处理。您的热心是对BT9527电影天堂最大的支持。
4、本站建议去正规影院观看电影以支持电影行业发展。
最新回复 (0)

你可以在 登录 or 注册 后,对此帖发表评论!

返回
发新帖