北京遇上西雅图[国粤多音轨/繁英字幕].Finding.Mr.Right.2013.BluRay.1080p.x265.10bit.2Audio-MiniHD 5.67GB

版主小s 5月前 216

✔资源类型:暂未分类   ✔电影年份:2013   ✔电影地区:大陆   ✔电影分类:喜剧

◎译  名 北京遇上西雅图 / 美丽有缘 / 情定西雅图 / Finding Mr. Right / Anchoring in Seattle
◎年  代 2013
◎产  地 中国大陆 / 中国香港
◎类  别 喜剧 / 爱情
◎语  言 汉语普通话 / 英语 / 闽南语
◎上映日期 2013-03-21(中国大陆) / 2016-03-29(重映)
◎IMDb链接 https://www.imdb.com/title/tt2169322/
◎豆瓣评分 7.3/10 (559104人评价)
◎豆瓣链接 https://movie.douban.com/subject/10574468/
◎片  长 123分钟
◎导  演 薛晓路 Xiaolu Xue (id:1275139)
◎编  剧 薛晓路 Xiaolu Xue (id:1275139)
       焦华静 Huajing Jiao (id:1317631)
       姜伟 Wei Jiang (id:1314065)
◎演  员 汤唯 Wei Tang (id:1025141)
       吴秀波 Xiubo Wu (id:1275317)
       海清 Qing Hai (id:1272245)
       宋美曼 Meiman Song (id:1327533)
       宋美慧 Meihui Song (id:1327532)
       金燕玲 Elaine Jin (id:1280673)
       买红妹 Hongmei Mai (id:1317605)
       布拉德·哈德 Brad Harder (id:1327531)
       李绮虹 Theresa Lee (id:1032921)
       王茜 Qian Wang (id:1313460)
       凯瑟琳·朗姆迪恩 Katherine Ramdeen (id:1354536)
       潘芳芳 Fong Fong Poon (id:1324440)
       王艺曈 Carrie Wang (id:1318919)
       王云菲 Rene Wang (id:1362290)
       刘仪伟 Yiwei Liu (id:1315726)
       克莱顿·基蒂 Clayton Chitty (id:1327021)
       江志强 William Kong (id:1288870)
       邓汉强 Matthew Tang (id:1308894)
       吴亚康 Yakang Wu (id:1399849)
       陆红实 Hongshi Lu (id:1399846)
       金培达 Peter Kam (id:1288082)
       陈志英 Chi Ying Chan (id:1326652)
       张嘉辉 Ka-fai Cheung (id:1280620)
       姜伟 Wei Jiang (id:1314065)
       苏国豪 Simon So (id:1328643)
       Athena Wong Athena Wong (id:1167627)
       奚仲文 Chung-Man Hai (id:1275027)

◎简  介
  “败金女”文佳佳(汤唯 饰)曾经是美食杂志编辑,对爱情充满了像电影《西雅图夜未眠》一样的浪漫幻想。而在现实中,为了给自己的孩子一个“美利坚公民”的身份,她不远万里只身来到西雅图的月子中心待产生子。                                       
                                    在月子中心,文佳佳炫富的作风引发了房东(金燕玲 饰)和其他孕妇周逸(海清 饰)、陈悦(买红妹 饰)的反感,倍感孤独的她只能向司机郝志Frank(吴秀波 饰)倾诉心声。而看上去木讷老实的“落魄叔”Frank并不是一个平庸的男子,他在中国曾是一位一流的心血管疾病方面的名医。在相处中,Frank的体贴包容渐渐融化着文佳佳的刁蛮任性。当文佳佳的富豪男友突然失踪后,一夜之间变成穷人的文佳佳得到了Frank无微不至的照顾,跟Frank和他的女儿Julie(宋美曼 & 宋美慧 饰)一起生活的这段日子,让文佳佳找到了家的温暖。                                       
                                    当经历了变故的文佳佳,生下了孩子,就要结束她...

◎获奖情况 (共22项)
  第33届香港电影金像奖 (2014)
  最佳编剧(提名)
   └──薛晓路 (id:1275139)
  最佳女主角(提名)
   └──汤唯 (id:1025141)

  第32届大众电影百花奖 (2014)
  最佳故事片(提名)
  最佳导演(提名)
   └──薛晓路 (id:1275139)
  最佳编剧(提名)
   └──薛晓路 (id:1275139)
  最佳男主角(提名)
   └──吴秀波 (id:1275317)
  最佳女主角(提名)
   └──汤唯 (id:1025141)
  最佳女配角(提名)
   └──海清 (id:1272245)

  第14届华语电影传媒大奖 (2014)
  观众票选最受瞩目电影
  最佳男主角(提名)
   └──吴秀波 (id:1275317)
  最佳女配角(提名)
   └──海清 (id:1272245)
  最佳新导演(提名)
   └──薛晓路 (id:1275139)

  第21届北京大学生电影节 (2014)
  最佳影片奖(提名)
  最佳编剧奖(提名)
   └──薛晓路 (id:1275139)
  最佳男演员奖(提名)
   └──吴秀波 (id:1275317)
  最佳女演员奖
   └──汤唯 (id:1025141)
  评委会大奖(提名)

  第4届豆瓣电影鑫像奖 (2014)
  鑫豆单元 最佳影片(华语)(提名)
  鑫豆单元 最佳男演员(华语)(提名)
   └──吴秀波 (id:1275317)
  鑫豆单元 最佳女演员(华语)(提名)
   └──汤唯 (id:1025141)
  鑫豆单元 最佳喜剧片
  鑫豆单元 最佳爱情片(提名)

  1. ##### MediaInfo ######
  2. General
  3. Unique ID                                : 324891914063792633211842684711812375765 (0xF46BE816D66D9E00D9D73E2BFA46A4D5)
  4. Complete name                            : Finding.Mr.Right.2013.BluRay.1080p.x265.10bit.2Audio-MiniHD.mkv
  5. Format                                   : Matroska
  6. Format version                           : Version 4
  7. File size                                : 5.67 GiB
  8. Duration                                 : 2 h 2 min
  9. Overall bit rate                         : 6 616 kb/s
  10. Encoded date                             : UTC 2018-12-01 15:46:44
  11. Writing application                      : mkvmerge v20.0.0 ('I Am The Sun') 64-bit
  12. Writing library                          : libebml v1.3.5 + libmatroska v1.4.8
  13. Video
  14. ID                                       : 1
  15. Format                                   : HEVC
  16. Format/Info                              : High Efficiency Video Coding
  17. Format profile                           : Main 10@L4@Main
  18. Codec ID                                 : V_MPEGH/ISO/HEVC
  19. Duration                                 : 2 h 2 min
  20. Bit rate                                 : 5 460 kb/s
  21. Width                                    : 1 918 pixels
  22. Height                                   : 820 pixels
  23. Display aspect ratio                     : 2.35:1
  24. Frame rate mode                          : Constant
  25. Frame rate                               : 24.000 FPS
  26. Color space                              : YUV
  27. Chroma subsampling                       : 4:2:0
  28. Bit depth                                : 10 bits
  29. Bits/(Pixel*Frame)                       : 0.145
  30. Stream size                              : 4.68 GiB (83%)
  31. Writing library                          : x265 2.8+1-478bfe2b7673:[Windows][GCC 7.3.0][64 bit] 10bit
  32. Encoding settings                        : cpuid=533541111039 / frame-threads=4 / numa-pools=16 / wpp / no-pmode / no-pme / no-psnr / no-ssim / log-level=2 / csv / csv-log-level=0 / input-csp=1 / input-res=1918x820 / interlace=0 / total-frames=176664 / level-idc=0 / high-tier=1 / uhd-bd=0 / ref=5 / no-allow-non-conformance / no-repeat-headers / annexb / no-aud / no-hrd / info / hash=0 / no-temporal-layers / no-open-gop / min-keyint=1 / keyint=360 / gop-lookahead=0 / bframes=9 / b-adapt=2 / b-pyramid / bframe-bias=0 / rc-lookahead=60 / lookahead-slices=4 / NTMzNTQ=uuDQuD2mJt9fsCf / scenecut=40 / radl=0 / no-intra-refresh / ctu=32 / min-cu-size=8 / rect / no-amp / max-tu-size=16 / tu-inter-depth=2 / tu-intra-depth=2 / limit-tu=4 / rdoq-level=1 / dynamic-rd=0.00 / ssim-rd / signhide / no-tskip / nr-intra=0 / nr-inter=0 / no-constrained-intra / no-strong-intra-smoothing / max-merge=3 / limit-refs=2 / limit-modes / me=3 / subme=5 / merange=25 / temporal-mvp / weightp / weightb / no-analyze-src-pics / deblock=-1:-1 / no-sao / no-sao-non-deblock / rd=4 / no-early-skip / rskip / no-fast-intra / no-tskip-fast / no-cu-lossless / b-intra / no-splitrd-skip / rdpenalty=1 / psy-rd=0.00 / psy-rdoq=5.00 / no-rd-refine / no-lossless / cbqpoffs=-2 / crqpoffs=-2 / rc=crf / crf=15.0 / qcomp=0.70 / qpstep=4 / stats-write=0 / stats-read=0 / ipratio=1.40 / pbratio=1.30 / aq-mode=1 / aq-strength=0.80 / cutree / zone-count=0 / no-strict-cbr / qg-size=16 / no-rc-grain / qpmax=69 / qpmin=0 / no-const-vbv / sar=0 / overscan=0 / videoformat=5 / range=0 / colorprim=1 / transfer=2 / colormatrix=2 / chromaloc=0 / display-window=0 / max-cll=0,0 / min-luma=0 / max-luma=1023 / log2-max-poc-lsb=8 / vui-timing-info / vui-hrd-info / slices=1 / no-opt-qp-pps / no-opt-ref-list-length-pps / no-multi-pass-opt-rps / scenecut-bias=0.05 / no-opt-cu-delta-qp / no-aq-motion / no-hdr / no-hdr-opt / no-dhdr10-opt / no-idr-recovery-sei / analysis-reuse-level=5 / scale-factor=0 / refine-intra=0 / refine-inter=0 / refine-mv=0 / no-limit-sao / ctu-info=0 / no-lowpass-dct / refine-mv-type=0 / copy-pic=1 / max-ausize-factor=1.0 / no-dynamic-refine / no-single-sei
  33. Language                                 : Chinese
  34. Default                                  : Yes
  35. Forced                                   : No
  36. Color range                              : Limited
  37. Color primaries                          : BT.709
  38. Audio #1
  39. ID                                       : 2
  40. Format                                   : AC-3
  41. Format/Info                              : Audio Coding 3
  42. Commercial name                          : Dolby Digital
  43. Codec ID                                 : A_AC3
  44. Duration                                 : 2 h 2 min
  45. Bit rate mode                            : Constant
  46. Bit rate                                 : 384 kb/s
  47. Channel(s)                               : 2 channels
  48. Channel layout                           : L R
  49. Sampling rate                            : 48.0 kHz
  50. Frame rate                               : 31.250 FPS (1536 SPF)
  51. Compression mode                         : Lossy
  52. Stream size                              : 337 MiB (6%)
  53. Title                                    : 粤语
  54. Language                                 : Chinese
  55. Service kind                             : Complete Main
  56. Default                                  : Yes
  57. Forced                                   : No
  58. Audio #2
  59. ID                                       : 3
  60. Format                                   : AC-3
  61. Format/Info                              : Audio Coding 3
  62. Commercial name                          : Dolby Digital
  63. Codec ID                                 : A_AC3
  64. Duration                                 : 2 h 2 min
  65. Bit rate mode                            : Constant
  66. Bit rate                                 : 640 kb/s
  67. Channel(s)                               : 6 channels
  68. Channel layout                           : L R C LFE Ls Rs
  69. Sampling rate                            : 48.0 kHz
  70. Frame rate                               : 31.250 FPS (1536 SPF)
  71. Compression mode                         : Lossy
  72. Stream size                              : 562 MiB (10%)
  73. Title                                    : 国语
  74. Language                                 : Chinese
  75. Service kind                             : Complete Main
  76. Default                                  : No
  77. Forced                                   : No
  78. Text #1
  79. ID                                       : 4
  80. Format                                   : PGS
  81. Muxing mode                              : zlib
  82. Codec ID                                 : S_HDMV/PGS
  83. Codec ID/Info                            : Picture based subtitle format used on BDs/HD-DVDs
  84. Title                                    : 繁体
  85. Language                                 : Chinese
  86. Default                                  : Yes
  87. Forced                                   : No
  88. Text #2
  89. ID                                       : 5
  90. Format                                   : PGS
  91. Muxing mode                              : zlib
  92. Codec ID                                 : S_HDMV/PGS
  93. Codec ID/Info                            : Picture based subtitle format used on BDs/HD-DVDs
  94. Title                                    : 英文
  95. Language                                 : English
  96. Default                                  : No
  97. Forced                                   : No
  98. Menu
  99. 00:00:00.000                             : en:Chapter 01
  100. 00:10:46.416                             : en:Chapter 02
  101. 00:19:36.208                             : en:Chapter 03
  102. 00:30:32.541                             : en:Chapter 04
  103. 00:40:04.583                             : en:Chapter 05
  104. 00:51:16.000                             : en:Chapter 06
  105. 01:00:32.750                             : en:Chapter 07
  106. 01:09:56.041                             : en:Chapter 08
  107. 01:20:48.458                             : en:Chapter 09
  108. 01:32:22.708                             : en:Chapter 10
  109. 01:41:31.000                             : en:Chapter 11
  110. 01:51:35.500                             : en:Chapter 12





此处一般会放置磁力链或种子下载链接,不过此链接需要注册会员才能看到,点击“立即注册”
磁力链下载【下载链接仅对注册会员开放,登陆后可见】
BT9527电影天堂 1、BT9527电影天堂提供的BT文件均来源于互联网抓取,只供网友学习交流、技术提升使用。
2、我们遵守BitTorrent点对点协议原则,任何版权问题请联系原资源发布商,我们不处理任何版权纠纷,谢谢!如有争议请联系邮箱:BT9527#hotmail.com(#换成@)
3、如果您发现某页面或地址有错误,请联系站长邮箱BT9527#hotmail.com(#换成@),我们会尽快处理。您的热心是对BT9527电影天堂最大的支持。
4、本站建议去正规影院观看电影以支持电影行业发展。
最新回复 (0)

你可以在 登录 or 注册 后,对此帖发表评论!

返回
发新帖