远山淡影[国语配音/中文字幕].Fading.Shadow.2021.1080p.WEB-DL.H264.AAC-HDBWEB 0.92GB

版主小s 5月前 205

✔资源类型:WEB-1080P   ✔电影年份:2021   ✔电影地区:大陆   ✔电影分类:剧情

◎译  名 远山淡影 / Fading Shadow(英) / L'esquisse de l'ombre(法)
◎年  代 2021
◎产  地 中国大陆
◎类  别 剧情 / 悬疑
◎语  言 汉语普通话
◎上映日期 2022-06-18(中国大陆/法国)
◎IMDb链接 https://www.imdb.com/title/tt21049210/
◎豆瓣链接 https://movie.douban.com/subject/35182979/
◎片  长 126分钟
◎导  演 贺泉 Quan He (id:1419622)
◎编  剧 张良学 Liangxue Zhang (id:1353435)
       贺泉 Quan He (id:1419622)
       吴童立 Tongli Wu (id:1419624)
◎演  员 叶硕 Oscar Ye (id:1397202)
       周楚濋 Chu-chu Zhou (id:1275152)
       杨骏 Jun Yang (id:1320989)
       聂礎一 Chuyi Nie (id:1468140)
       谢宇朦 Yumeng Xie (id:1396504)
       董浩然 Haoran Dong (id:1442800)
       黄子轶  (id:1472698)
       姜衡  (id:1473155)
       翟金鹏  (id:1473156)
       侯聪平  (id:1473102)
       邓?英  (id:1473108)
       史冰杰  (id:1473157)

◎简  介
  90年代,中国中部沿江小县淮川的一起凶杀案,模拟画像师章欣奉命前往画出嫌疑人。却意外画出了一个已经死去了十多年的女人,是原来县文工团的一个舞蹈演员严华。当全部人都觉得章欣画错时,案子却又诡谲的和80年代的一起连环谋杀案关联在了一起。章欣为了证明自己,一步步走向这迷雾之中......
  1. ##### MediaInfo ######
  2. General
  3. Complete name                            : 远山淡影.Fading.Shadow.2021.1080p.WEB-DL.H264.AAC-HDBWEB.mp4
  4. Format                                   : MPEG-4
  5. Format profile                           : Base Media
  6. Codec ID                                 : isom (isom/iso2/avc1/mp41)
  7. File size                                : 940 MiB
  8. Duration                                 : 2 h 5 min
  9. Overall bit rate                         : 1 044 kb/s
  10. Writing application                      : OurTV Media Encoder
  11. Video
  12. ID                                       : 1
  13. Format                                   : AVC
  14. Format/Info                              : Advanced Video Codec
  15. Format profile                           : High@L4
  16. Format settings                          : CABAC / 3 Ref Frames
  17. Format settings, CABAC                   : Yes
  18. Format settings, Reference frames        : 3 frames
  19. Codec ID                                 : avc1
  20. Codec ID/Info                            : Advanced Video Coding
  21. Duration                                 : 2 h 5 min
  22. Bit rate                                 : 848 kb/s
  23. Width                                    : 1 920 pixels
  24. Height                                   : 816 pixels
  25. Display aspect ratio                     : 2.35:1
  26. Frame rate mode                          : Constant
  27. Frame rate                               : 24.000 FPS
  28. Color space                              : YUV
  29. Chroma subsampling                       : 4:2:0
  30. Bit depth                                : 8 bits
  31. Scan type                                : Progressive
  32. Bits/(Pixel*Frame)                       : 0.023
  33. Stream size                              : 763 MiB (81%)
  34. Color range                              : Limited
  35. Color primaries                          : BT.709
  36. Transfer characteristics                 : BT.709
  37. Matrix coefficients                      : BT.709
  38. Codec configuration box                  : avcC
  39. Audio
  40. ID                                       : 2
  41. Format                                   : AAC LC
  42. Format/Info                              : Advanced Audio Codec Low Complexity
  43. Codec ID                                 : mp4a-40-2
  44. Duration                                 : 2 h 5 min
  45. Bit rate mode                            : Constant
  46. Bit rate                                 : 192 kb/s
  47. Channel(s)                               : 2 channels
  48. Channel layout                           : L R
  49. Sampling rate                            : 44.1 kHz
  50. Frame rate                               : 43.066 FPS (1024 SPF)
  51. Compression mode                         : Lossy
  52. Stream size                              : 171 MiB (18%)
  53. Default                                  : Yes
  54. Alternate group                          : 1





此处一般会放置磁力链或种子下载链接,不过此链接需要注册会员才能看到,点击“立即注册”
磁力链下载【下载链接仅对注册会员开放,登陆后可见】
BT9527电影天堂 1、BT9527电影天堂提供的BT文件均来源于互联网抓取,只供网友学习交流、技术提升使用。
2、我们遵守BitTorrent点对点协议原则,任何版权问题请联系原资源发布商,我们不处理任何版权纠纷,谢谢!如有争议请联系邮箱:BT9527#hotmail.com(#换成@)
3、如果您发现某页面或地址有错误,请联系站长邮箱BT9527#hotmail.com(#换成@),我们会尽快处理。您的热心是对BT9527电影天堂最大的支持。
4、本站建议去正规影院观看电影以支持电影行业发展。
最新回复 (0)

你可以在 登录 or 注册 后,对此帖发表评论!

返回
发新帖