剑花烟雨江南[国语音轨/简繁字幕].To.Kill.with.Intrigue.1977.BluRay.1080p.x265.10bit-MiniHD 7.33GB

版主小s 5月前 225

✔资源类型:暂未分类   ✔电影年份:更 早   ✔电影地区:香港   ✔电影分类:剧情

◎译  名 剑花烟雨江南 / 劍·花·煙雨江南 / To Kill with Intrigue
◎片  名 劍花煙雨江南
◎年  代 1977
◎产  地 中国香港
◎类  别 剧情 / 动作
◎语  言 汉语普通话
◎上映日期 1977-07-22(中国香港)
◎IMDb链接 https://www.imdb.com/title/tt0076227/
◎豆瓣评分 5.7/10 (1353人评价)
◎豆瓣链接 https://movie.douban.com/subject/1307832/
◎片  长 106分钟
◎导  演 罗维 Wei Lo (id:1328734)
       徐学良 Hsueh Liang Hsu (id:1360941)
◎编  剧 古龙 Lung Ku (id:1315799)
◎演  员 成龙 Jackie Chan (id:1054531)
       陈慧楼 Hui Lou Chen (id:1315548)
       徐枫 Feng Hsu (id:1025643)
       马骥 Kei Ma (id:1338936)
       佟林 Lin Tung (id:1333676)
       茅敬顺 Ching-Shun Mao (id:1432085)
       王珏 Jue Wang (id:1316753)
       江青霞 Ching-hsia Chiang (id:1348012)
       李文泰 Wen Tai Li (id:1346070)
       杜伟和 Wei Ho Tu (id:1360498)
       陈勋奇 Frankie Chan (id:1280419)
       周瑾 Zhou Chin (id:1431119)

◎简  介
  剧十五年前,奇峯山庄庄主曾利用做寿之际协同各路武林高手围剿人面桃花蜂。如今庄主年逾六旬,销声匿迹多年的人面桃花蜂又开始重出江湖。老庄主知道人面桃花蜂很有可能在自己的六十大寿上出现,于是将来宾和下人全部赶走,决定独自面对。少庄主小雷和丫环纤纤感情要好,为了不连累她并为雷家留 下骨肉, 小雷一改往日常态,将纤纤气走。同时小雷托付好朋友金川代为照顾纤纤,他自己要和奇峯山庄共存亡。
  1. ##### MediaInfo ######
  2. General
  3. Unique ID                                : 55201397631018631325816305379663998680 (0x2987670813213E027592789A9F70EED8)
  4. Complete name                            : To.Kill.with.Intrigue.1977.BluRay.1080p.x265.10bit-MiniHD.mkv
  5. Format                                   : Matroska
  6. Format version                           : Version 4
  7. File size                                : 7.33 GiB
  8. Duration                                 : 1 h 47 min
  9. Overall bit rate                         : 9 758 kb/s
  10. Encoded date                             : UTC 2018-08-26 17:34:44
  11. Writing application                      : mkvmerge v20.0.0 ('I Am The Sun') 64-bit
  12. Writing library                          : libebml v1.3.5 + libmatroska v1.4.8
  13. Video
  14. ID                                       : 1
  15. Format                                   : HEVC
  16. Format/Info                              : High Efficiency Video Coding
  17. Format profile                           : Main 10@L4@Main
  18. Codec ID                                 : V_MPEGH/ISO/HEVC
  19. Duration                                 : 1 h 47 min
  20. Bit rate                                 : 8 055 kb/s
  21. Width                                    : 1 920 pixels
  22. Height                                   : 804 pixels
  23. Display aspect ratio                     : 2.40:1
  24. Frame rate mode                          : Constant
  25. Frame rate                               : 23.976 (24000/1001/53354) FPS
  26. Color space                              : YUV
  27. Chroma subsampling                       : 4:2:0
  28. Bit depth                                : 10 bits
  29. Bits/(Pixel*Frame)                       : 0.218
  30. Stream size                              : 6.05 GiB (83%)
  31. Writing library                          : x265 2.8+1-478bfe2b7673:[Windows][GCC 7.3.0][64 bit] 10bit
  32. Encoding settings                        : cpuid=533541111039 / frame-threads=4 / numa-pools=16 / wpp / no-pmode / no-pme / no-psnr / no-ssim / log-level=2 / csv / csv-log-level=0 / input-csp=1 / input-res=1920x804 / interlace=0 / total-frames=154681 / level-idc=0 / high-tier=1 / uhd-bd=0 / ref=5 / no-allow-non-conformance / no-repeat-headers / annexb / no-aud / no-hrd / info / hash=0 / no-temporal-layers / no-open-gop / min-keyint=1 / keyint=360 / gop-lookahead=0 / bframes=9 / b-adapt=2 / b-pyramid / bframe-bias=0 / rc-lookahead=60 / lookahead-slices=4 / NTMzNTQ=uuDQuD2mJt9fsCf / scenecut=40 / radl=0 / no-intra-refresh / ctu=32 / min-cu-size=8 / rect / no-amp / max-tu-size=16 / tu-inter-depth=2 / tu-intra-depth=2 / limit-tu=4 / rdoq-level=1 / dynamic-rd=0.00 / ssim-rd / signhide / no-tskip / nr-intra=0 / nr-inter=0 / no-constrained-intra / no-strong-intra-smoothing / max-merge=3 / limit-refs=2 / limit-modes / me=3 / subme=5 / merange=25 / temporal-mvp / weightp / weightb / no-analyze-src-pics / deblock=-1:-1 / no-sao / no-sao-non-deblock / rd=4 / no-early-skip / rskip / no-fast-intra / no-tskip-fast / no-cu-lossless / b-intra / no-splitrd-skip / rdpenalty=1 / psy-rd=0.00 / psy-rdoq=5.00 / no-rd-refine / no-lossless / cbqpoffs=-2 / crqpoffs=-2 / rc=crf / crf=21.0 / qcomp=0.70 / qpstep=4 / stats-write=0 / stats-read=0 / ipratio=1.40 / pbratio=1.30 / aq-mode=1 / aq-strength=0.80 / cutree / zone-count=0 / no-strict-cbr / qg-size=16 / no-rc-grain / qpmax=69 / qpmin=0 / no-const-vbv / sar=0 / overscan=0 / videoformat=5 / range=0 / colorprim=1 / transfer=2 / colormatrix=2 / chromaloc=0 / display-window=0 / max-cll=0,0 / min-luma=0 / max-luma=1023 / log2-max-poc-lsb=8 / vui-timing-info / vui-hrd-info / slices=1 / no-opt-qp-pps / no-opt-ref-list-length-pps / no-multi-pass-opt-rps / scenecut-bias=0.05 / no-opt-cu-delta-qp / no-aq-motion / no-hdr / no-hdr-opt / no-dhdr10-opt / no-idr-recovery-sei / analysis-reuse-level=5 / scale-factor=0 / refine-intra=0 / refine-inter=0 / refine-mv=0 / no-limit-sao / ctu-info=0 / no-lowpass-dct / refine-mv-type=0 / copy-pic=1 / max-ausize-factor=1.0 / no-dynamic-refine / no-single-sei
  33. Language                                 : Chinese
  34. Default                                  : Yes
  35. Forced                                   : No
  36. Color range                              : Limited
  37. Color primaries                          : BT.709
  38. Audio
  39. ID                                       : 2
  40. Format                                   : DTS
  41. Format/Info                              : Digital Theater Systems
  42. Codec ID                                 : A_DTS
  43. Duration                                 : 1 h 47 min
  44. Bit rate mode                            : Constant
  45. Bit rate                                 : 1 509 kb/s
  46. Channel(s)                               : 6 channels
  47. Channel layout                           : C L R Ls Rs LFE
  48. Sampling rate                            : 48.0 kHz
  49. Frame rate                               : 93.750 FPS (512 SPF)
  50. Bit depth                                : 24 bits
  51. Compression mode                         : Lossy
  52. Stream size                              : 1.13 GiB (15%)
  53. Title                                    : DTS
  54. Language                                 : Chinese
  55. Default                                  : Yes
  56. Forced                                   : No
  57. Text #1
  58. ID                                       : 3
  59. Format                                   : PGS
  60. Muxing mode                              : zlib
  61. Codec ID                                 : S_HDMV/PGS
  62. Codec ID/Info                            : Picture based subtitle format used on BDs/HD-DVDs
  63. Title                                    : 繁体
  64. Language                                 : Chinese
  65. Default                                  : Yes
  66. Forced                                   : No
  67. Text #2
  68. ID                                       : 4
  69. Format                                   : PGS
  70. Muxing mode                              : zlib
  71. Codec ID                                 : S_HDMV/PGS
  72. Codec ID/Info                            : Picture based subtitle format used on BDs/HD-DVDs
  73. Title                                    : 简体
  74. Language                                 : Chinese
  75. Default                                  : No
  76. Forced                                   : No
  77. Menu
  78. 00:00:00.000                             : en:Chapter 01
  79. 00:07:35.204                             : en:Chapter 02
  80. 00:16:10.219                             : en:Chapter 03
  81. 00:25:10.675                             : en:Chapter 04
  82. 00:34:03.249                             : en:Chapter 05
  83. 00:42:21.372                             : en:Chapter 06
  84. 00:54:02.113                             : en:Chapter 07
  85. 01:02:50.683                             : en:Chapter 08
  86. 01:11:05.302                             : en:Chapter 09
  87. 01:19:46.031                             : en:Chapter 10
  88. 01:27:58.982                             : en:Chapter 11
  89. 01:37:12.785                             : en:Chapter 12





此处一般会放置磁力链或种子下载链接,不过此链接需要注册会员才能看到,点击“立即注册”
磁力链下载【下载链接仅对注册会员开放,登陆后可见】
BT9527电影天堂 1、BT9527电影天堂提供的BT文件均来源于互联网抓取,只供网友学习交流、技术提升使用。
2、我们遵守BitTorrent点对点协议原则,任何版权问题请联系原资源发布商,我们不处理任何版权纠纷,谢谢!如有争议请联系邮箱:BT9527#hotmail.com(#换成@)
3、如果您发现某页面或地址有错误,请联系站长邮箱BT9527#hotmail.com(#换成@),我们会尽快处理。您的热心是对BT9527电影天堂最大的支持。
4、本站建议去正规影院观看电影以支持电影行业发展。
最新回复 (0)

你可以在 登录 or 注册 后,对此帖发表评论!

返回
发新帖