十月围城[国语音轨/简体字幕].Bodyguards.and.Assassins.2009.BluRay.1080p.x265.10bit-MiniHD 7.83GB

版主小s 5月前 263

✔资源类型:暂未分类   ✔电影年份:2009   ✔电影地区:香港   ✔电影分类:剧情

◎译  名 十月围城 / Bodyguards and Assassins
◎年  代 2009
◎产  地 中国香港 / 中国大陆
◎类  别 剧情 / 动作 / 历史
◎语  言 汉语普通话 / 粤语 / 英语
◎上映日期 2009-12-18(中国大陆/中国香港)
◎IMDb链接 https://www.imdb.com/title/tt1403130/
◎豆瓣评分 7.7/10 (303186人评价)
◎豆瓣链接 https://movie.douban.com/subject/3626416/
◎片  长 139 分钟
◎导  演 陈德森 Teddy Chan (id:1313007)
◎编  剧 郭俊立 Junli Guo (id:1274911)
       秦天南 Tin Nam Chun (id:1280773)
       陈嘉仪 Joyce Chan (id:1325363)
       吴兵 Bing Wu  (id:1317088)
       陈铜民 Tongmin Chen (id:1329641)
       阮世生 James Yuen (id:1023957)
◎演  员 甄子丹 Donnie Yen (id:1025194)
       王学圻 Xueqi Wang (id:1054562)
       梁家辉 Tony Leung (id:1118167)
       胡军 Jun Hu (id:1032540)
       王柏杰 Bo-Chieh Wang (id:1275038)
       谢霆锋 Nicholas Tse (id:1050053)
       李宇春 Yuchun Li (id:1274227)
       巴特尔 Mengke Bateer (id:1313644)
       黎明 Leon Lai (id:1036978)
       范冰冰 Bingbing Fan (id:1050059)
       曾志伟 Eric Tsang (id:1002862)
       任达华 Simon Yam (id:1031194)
       周韵 Yun Zhou (id:1037851)
       张涵予 Hanyu Zhang (id:1274319)
       张学友 Jacky Cheung (id:1012563)
       李嘉欣 Michele Reis (id:1139540)
       吕中 Zhong Lü (id:1274711)
       释彦能 Yanneng Shi (id:1202926)
       张建亚 Jianya Zhang (id:1276057)
       岑建勋 John Sham (id:1274474)
       伍允龙 Philip Ng (id:1316267)
       王文杰 Wenjie Wang (id:1313795)
       汪汐潮 Xichao Wang (id:1326518)
       杜宇航 Yu-Hang To (id:1315999)
       黎烈弓 Cung Le (id:1313810)
       娄淇 Qi Lou (id:1317811)
       刘广宁 Guangning Liu (id:1318246)
       张优 You Zhang (id:1348506)
       周彦岑 Yancen Zhou (id:1396550)
       许守钦 Shouqin Xu (id:1314515)
       韦奕波 Yibo Wei (id:1422829)
       史飞达 Feida Shi (id:1344721)
       郝靓  (id:1347974)
       杨光 Guang Yang (id:1394144)
       陈可辛 Peter Chan (id:1274300)
       黄建新 Jianxin Huang (id:1019896)
       韩三平 Sanping Han (id:1274843)
       叶伟民 Raymond Yip Wai-Man (id:1275004)
       许月珍 Jojo Hui Yuet-chun  (id:1302761)
       于冬 Dong Yu (id:1317865)
       陈梁 Liang Chen (id:1408262)
       逯鲁 Lu Lu (id:1417392)
       林淑贤 Debbie Lam Suk-Yin (id:1411136)
       陈光荣 Kwong Wing Chan (id:1019903)
       金培达 Peter Kam (id:1288082)
       黄岳泰 Arthur Wong (id:1301185)
       黎耀辉 Yiu-Fai Lai (id:1289265)
       杨振宇 Zhenyu Yang (id:1424278)
       敖志君 Peter Ngor (id:1293124)
       许宏宇 Derek Hui (id:1275501)
       黄海 Hoi Wong (id:1325303)
       麦国强 Kenneth Mak (id:1290782)
       吴里璐 Dora Ng (id:1289270)
       方思哲 Sizhe Fang (id:1399301)
       马克.加巴里诺 Mark Garbarino (id:1284493)
       叶伟民 Raymond Yip Wai-Man (id:1275004)
       张超理 Chaoli Zhang (id:1327429)
       王天娇 Tiaojiao Wang (id:1409926)
       曾景祥 Kinson Tsang (id:1299575)
       吴炫辉 Yuen Fai Ng (id:1275160)
       邹志盛 Chas Chi-Shing Chau (id:1325222)
       谭志伟 Chi-Wai Tam (id:1325223)
       董玮 Wai Tung (id:1299617)
       刘伟强 Andrew Lau (id:1106979)
       杨箐奕 Qingyi Yang (id:1332953)

◎简  介
  1905年,香港中环。革命志士惨遭暗杀。知悉孙中山(张涵予 饰)即将抵港,清廷遂派遣将军阎孝国(胡军 饰)前来剿杀。他收买赌徒沈重阳(甄子丹 饰)作密探。适逢商人李玉堂(王学圻 饰)之子李重光(王柏杰饰)考学庆典,沈重阳见前妻月茹(范冰冰 饰)与幼女已成他人家眷,黯然离去。为护孙,《中国日报》社长陈少白(梁家辉 饰)邀戏班班主(任达华饰)出手,令其惨遭灭门,其女方红(李宇春 饰)侥幸生还。陈少白被擒,与阎孝国相见,师生决裂。独子游行好友被擒等变故,使李玉堂投身革命,引得探长史密夫(曾志伟 饰)查封报馆。其间,李玉堂帮车夫阿四(谢霆锋 饰)与恋人阿纯(周韵 饰)订婚。月茹夜会沈重阳,要他弃暗投明。打女方红、小贩王复明(巴特尔 饰)、乞丐刘郁白(黎明 饰)等人也先后加入护孙行列。一场惊心动魄的全城追杀由此展开……                                       
                                    本片投资1.5亿人民币,史上首度以 1:...

◎获奖情况 (共55项)
  第47届台北金马影展 (2010)
  金马奖 最佳剧情片(提名)
  金马奖 最佳导演(提名)
   └──陈德森 (id:1313007)
  金马奖 最佳男主角(提名)
   └──王学圻 (id:1054562)
  金马奖 最佳男配角(提名)
   └──谢霆锋 (id:1050053)
  金马奖 最佳摄影(提名)
   └──黄岳泰 (id:1301185)
  金马奖 最佳造型设计
   └──吴里璐 (id:1289270)
  金马奖 最佳动作设计(提名)
  金马奖 最佳剪辑(提名)
  金马奖 最佳视觉效果(提名)

  第29届香港电影金像奖 (2010)
  最佳电影
  最佳导演
   └──陈德森 (id:1313007)
  最佳编剧(提名)
  最佳男主角(提名)
   └──王学圻 (id:1054562)
  最佳男配角
   └──谢霆锋 (id:1050053)
  最佳男配角(提名)
   └──梁家辉 (id:1118167)
  最佳女配角(提名)
  最佳新演员(提名)
   └──李宇春 (id:1274227)
  最佳摄影
   └──黄岳泰 (id:1301185)
  最佳剪接(提名)
  最佳美术指导
   └──麦国强 (id:1290782)
  最佳服装造型设计(提名)
   └──吴里璐 (id:1289270)
  最佳动作设计
  最佳原创电影音乐
  最佳原创电影歌曲(提名)
  最佳音响效果(提名)
  最佳视觉效果(提名)

  第28届中国电影金鸡奖 (2011)
  最佳音乐(提名)
   └──陈光荣 (id:1019903)
  最佳录音(提名)
   └──杨箐奕 (id:1332953)

  第30届大众电影百花奖 (2010)
  最佳故事片(提名)
  最佳导演(提名)
   └──陈德森 (id:1313007)
  最佳女主角(提名)
   └──范冰冰 (id:1050059)
  最佳新人(提名)

  第14届中国电影华表奖 (2011)
  优秀男演员奖(提名)
   └──王学圻 (id:1054562)
  优秀境外华裔导演奖
   └──陈德森 (id:1313007)
  优秀合拍片奖

  第4届亚洲电影大奖 (2010)
  我最喜爱的男女主角 我最喜爱的男主角
   └──王学圻 (id:1054562)
  最佳电影(提名)
  最佳男主角
   └──王学圻 (id:1054562)
  最佳新演员(提名)
   └──李宇春 (id:1274227)
  最佳男配角
   └──谢霆锋 (id:1050053)
  最佳美术指导(提名)
   └──麦国强 (id:1290782)
  最佳造型设计(提名)
   └──吴里璐 (id:1289270)

  第10届中国长春电影节 (2010)
  金鹿奖 最佳男演员
   └──王学圻 (id:1054562)
  金鹿奖 最佳摄影
   └──黄岳泰 (id:1301185)

  第10届华语电影传媒大奖 (2010)
  百家传媒年度致敬电影(提名)
  最佳电影(提名)
  最佳男主角(提名)
   └──王学圻 (id:1054562)
  最佳男配角(提名)
   └──谢霆锋 (id:1050053)
  最佳新演员(提名)
   └──李宇春 (id:1274227)

  第17届北京大学生电影节 (2010)
  最佳影片奖(提名)
  最佳导演奖(提名)
   └──陈德森 (id:1313007)
  最佳男演员奖(提名)
   └──王学圻 (id:1054562)
  最佳观赏效果奖(提名)
  评委会大奖
  最受大学生欢迎导演
   └──陈德森 (id:1313007)

  1. ##### MediaInfo ######
  2. General
  3. Unique ID                                : 96308458380038899843504791720513161352 (0x4874559A87A6593B8997D9A6FAEAC888)
  4. Complete name                            : Bodyguards.and.Assassins.2009.BluRay.1080p.x265.10bit-MiniHD.mkv
  5. Format                                   : Matroska
  6. Format version                           : Version 4
  7. File size                                : 7.83 GiB
  8. Duration                                 : 2 h 17 min
  9. Overall bit rate                         : 8 159 kb/s
  10. Encoded date                             : UTC 2018-10-09 08:24:57
  11. Writing application                      : mkvmerge v20.0.0 ('I Am The Sun') 64-bit
  12. Writing library                          : libebml v1.3.5 + libmatroska v1.4.8
  13. Video
  14. ID                                       : 1
  15. Format                                   : HEVC
  16. Format/Info                              : High Efficiency Video Coding
  17. Format profile                           : Main 10@L4@Main
  18. Codec ID                                 : V_MPEGH/ISO/HEVC
  19. Duration                                 : 2 h 17 min
  20. Bit rate                                 : 6 191 kb/s
  21. Width                                    : 1 916 pixels
  22. Height                                   : 818 pixels
  23. Display aspect ratio                     : 2.35:1
  24. Frame rate mode                          : Constant
  25. Frame rate                               : 23.976 (24000/1001/53354) FPS
  26. Color space                              : YUV
  27. Chroma subsampling                       : 4:2:0
  28. Bit depth                                : 10 bits
  29. Bits/(Pixel*Frame)                       : 0.165
  30. Stream size                              : 5.94 GiB (76%)
  31. Writing library                          : x265 2.8+1-478bfe2b7673:[Windows][GCC 7.3.0][64 bit] 10bit
  32. Encoding settings                        : cpuid=533541111039 / frame-threads=4 / numa-pools=16 / wpp / no-pmode / no-pme / no-psnr / no-ssim / log-level=2 / csv / csv-log-level=0 / input-csp=1 / input-res=1916x818 / interlace=0 / total-frames=197706 / level-idc=0 / high-tier=1 / uhd-bd=0 / ref=5 / no-allow-non-conformance / no-repeat-headers / annexb / no-aud / no-hrd / info / hash=0 / no-temporal-layers / no-open-gop / min-keyint=1 / keyint=360 / gop-lookahead=0 / bframes=9 / b-adapt=2 / b-pyramid / bframe-bias=0 / rc-lookahead=60 / lookahead-slices=4 / NTMzNTQ=uuDQuD2mJt9fsCf / scenecut=40 / radl=0 / no-intra-refresh / ctu=32 / min-cu-size=8 / rect / no-amp / max-tu-size=16 / tu-inter-depth=2 / tu-intra-depth=2 / limit-tu=4 / rdoq-level=1 / dynamic-rd=0.00 / ssim-rd / signhide / no-tskip / nr-intra=0 / nr-inter=0 / no-constrained-intra / no-strong-intra-smoothing / max-merge=3 / limit-refs=2 / limit-modes / me=3 / subme=5 / merange=25 / temporal-mvp / weightp / weightb / no-analyze-src-pics / deblock=-1:-1 / no-sao / no-sao-non-deblock / rd=4 / no-early-skip / rskip / no-fast-intra / no-tskip-fast / no-cu-lossless / b-intra / no-splitrd-skip / rdpenalty=1 / psy-rd=0.00 / psy-rdoq=5.00 / no-rd-refine / no-lossless / cbqpoffs=-2 / crqpoffs=-2 / rc=crf / crf=17.0 / qcomp=0.70 / qpstep=4 / stats-write=0 / stats-read=0 / ipratio=1.40 / pbratio=1.30 / aq-mode=1 / aq-strength=0.80 / cutree / zone-count=0 / no-strict-cbr / qg-size=16 / no-rc-grain / qpmax=69 / qpmin=0 / no-const-vbv / sar=0 / overscan=0 / videoformat=5 / range=0 / colorprim=1 / transfer=2 / colormatrix=2 / chromaloc=0 / display-window=0 / max-cll=0,0 / min-luma=0 / max-luma=1023 / log2-max-poc-lsb=8 / vui-timing-info / vui-hrd-info / slices=1 / no-opt-qp-pps / no-opt-ref-list-length-pps / no-multi-pass-opt-rps / scenecut-bias=0.05 / no-opt-cu-delta-qp / no-aq-motion / no-hdr / no-hdr-opt / no-dhdr10-opt / no-idr-recovery-sei / analysis-reuse-level=5 / scale-factor=0 / refine-intra=0 / refine-inter=0 / refine-mv=0 / no-limit-sao / ctu-info=0 / no-lowpass-dct / refine-mv-type=0 / copy-pic=1 / max-ausize-factor=1.0 / no-dynamic-refine / no-single-sei
  33. Language                                 : Chinese
  34. Default                                  : Yes
  35. Forced                                   : No
  36. Color range                              : Limited
  37. Color primaries                          : BT.709
  38. Audio #1
  39. ID                                       : 2
  40. Format                                   : DTS
  41. Format/Info                              : Digital Theater Systems
  42. Codec ID                                 : A_DTS
  43. Duration                                 : 2 h 17 min
  44. Bit rate mode                            : Constant
  45. Bit rate                                 : 1 509 kb/s
  46. Channel(s)                               : 6 channels
  47. Channel layout                           : C L R Ls Rs LFE
  48. Sampling rate                            : 48.0 kHz
  49. Frame rate                               : 93.750 FPS (512 SPF)
  50. Bit depth                                : 24 bits
  51. Compression mode                         : Lossy
  52. Stream size                              : 1.45 GiB (18%)
  53. Title                                    : 国语DTS
  54. Language                                 : Chinese
  55. Default                                  : Yes
  56. Forced                                   : No
  57. Audio #2
  58. ID                                       : 3
  59. Format                                   : AC-3
  60. Format/Info                              : Audio Coding 3
  61. Commercial name                          : Dolby Digital
  62. Codec ID                                 : A_AC3
  63. Duration                                 : 2 h 17 min
  64. Bit rate mode                            : Constant
  65. Bit rate                                 : 448 kb/s
  66. Channel(s)                               : 6 channels
  67. Channel layout                           : L R C LFE Ls Rs
  68. Sampling rate                            : 48.0 kHz
  69. Frame rate                               : 31.250 FPS (1536 SPF)
  70. Compression mode                         : Lossy
  71. Stream size                              : 440 MiB (5%)
  72. Title                                    : 国语DD5.1
  73. Language                                 : Chinese
  74. Service kind                             : Complete Main
  75. Default                                  : No
  76. Forced                                   : No
  77. Text
  78. ID                                       : 4
  79. Format                                   : PGS
  80. Muxing mode                              : zlib
  81. Codec ID                                 : S_HDMV/PGS
  82. Codec ID/Info                            : Picture based subtitle format used on BDs/HD-DVDs
  83. Duration                                 : 2 h 10 min
  84. Bit rate                                 : 14.9 kb/s
  85. Count of elements                        : 1976
  86. Stream size                              : 14.0 MiB (0%)
  87. Title                                    : 简体
  88. Language                                 : Chinese
  89. Default                                  : Yes
  90. Forced                                   : No
  91. Menu
  92. 00:00:00.000                             : en:Chapter 01
  93. 00:05:12.061                             : en:Chapter 02
  94. 00:11:00.409                             : en:Chapter 03
  95. 00:15:45.903                             : en:Chapter 04
  96. 00:23:06.510                             : en:Chapter 05
  97. 00:27:29.397                             : en:Chapter 06
  98. 00:32:06.007                             : en:Chapter 07
  99. 00:37:21.822                             : en:Chapter 08
  100. 00:42:01.310                             : en:Chapter 09
  101. 00:48:00.460                             : en:Chapter 10
  102. 00:54:02.697                             : en:Chapter 11
  103. 00:58:35.053                             : en:Chapter 12
  104. 01:03:44.946                             : en:Chapter 13
  105. 01:10:32.102                             : en:Chapter 14
  106. 01:17:19.176                             : en:Chapter 15
  107. 01:23:36.719                             : en:Chapter 16
  108. 01:28:27.927                             : en:Chapter 17
  109. 01:34:45.805                             : en:Chapter 18
  110. 01:38:31.572                             : en:Chapter 19
  111. 01:44:25.592                             : en:Chapter 20
  112. 01:53:55.995                             : en:Chapter 21
  113. 02:02:07.319                             : en:Chapter 22
  114. 02:03:30.903                             : en:Chapter 23
  115. 02:07:16.920                             : en:Chapter 24
  116. 02:11:23.625                             : en:Chapter 25
  117. 02:17:24.986                             : en:Chapter 26





此处一般会放置磁力链或种子下载链接,不过此链接需要注册会员才能看到,点击“立即注册”
磁力链下载【下载链接仅对注册会员开放,登陆后可见】
BT9527电影天堂 1、BT9527电影天堂提供的BT文件均来源于互联网抓取,只供网友学习交流、技术提升使用。
2、我们遵守BitTorrent点对点协议原则,任何版权问题请联系原资源发布商,我们不处理任何版权纠纷,谢谢!如有争议请联系邮箱:BT9527#hotmail.com(#换成@)
3、如果您发现某页面或地址有错误,请联系站长邮箱BT9527#hotmail.com(#换成@),我们会尽快处理。您的热心是对BT9527电影天堂最大的支持。
4、本站建议去正规影院观看电影以支持电影行业发展。
最新回复 (0)

你可以在 登录 or 注册 后,对此帖发表评论!

返回
发新帖