危险情人[粤语音轨/简繁字幕].The.Shootout.1992.1080p.BluRay.x264-HomeHD 10.00GB

版主小s 5月前 240

✔资源类型:BD-1080P   ✔电影年份:更 早   ✔电影地区:香港   ✔电影分类:剧情

◎译  名 危险情人 / The Shootout
◎片  名 危險情人
◎年  代 1992
◎产  地 中国香港
◎类  别 剧情 / 爱情 / 犯罪
◎语  言 粤语
◎上映日期 1992-06-27
◎IMDb链接 https://www.imdb.com/title/tt0105797/
◎豆瓣评分 6.4/10 (961人评价)
◎豆瓣链接 https://movie.douban.com/subject/1863735/
◎片  长 95 分钟
◎导  演 麦当杰 Michael Mak (id:1324928)
◎编  剧 邓景生 Edward Tang (id:1298905)
◎演  员 郭富城 Aaron Kwok (id:1041390)
       刘青云 Sean Lau (id:1007251)
       袁洁莹 Fennie Yuen (id:1051082)
       梁家仁 Ka-Yan Leung (id:1008125)
       徐锦江 Elvis Tsui (id:1028828)
       吴青谋 Ching-Mau Ng (id:1411543)
       李英杰 Ying Kit Lee (id:1412104)
       黄仲渠 Chung Kui Wong (id:1417513)
       罗树琪 Shu-Kei Law (id:1394347)
       成龙 Jackie Chan (id:1054531)
       黄少雄 David Wong (id:1431239)
       陈永良 Wing-leung Chan (id:1363084)
       倪雪 Xue Ni (id:1359488)
       罗礼贤 Bruce Law (id:1289542)

◎简  介
  汉(徐锦江 饰)、希、官、Bonnie(苑琼丹 饰)是四个银行劫匪。他们劫持了一辆运钞车,汉与希阻断追捕的警察,官和Bonnie在逃亡中遭遇小警察家辉(郭富城 饰),官不慎跌下机车,被家辉捉住。得知同伙落网,冷血的汉冲入警署,在众目睽睽之下枪杀官以灭口。                                    
                                由于情节严重,警署将家辉和女警员珊调入重案组协助调查。二人与冤家对头的两位警探刘(刘青云 饰)和马合作,先从押运员入手,顺藤摸瓜至某卡拉OK厅。家辉与纯情女歌手敏(袁洁莹 饰)坠入情网。不久,更从敏处得知运钞车劫匪的线索……
  1. ##### MediaInfo ######
  2. General
  3. Unique ID                                : 318131675762462848279277471973240603849 (0xEF55EE9B8B1334D7BAD48B4EDE1E04C9)
  4. Complete name                            : The.Shootout.1992.1080p.BluRay.x264-HomeHD.mkv
  5. Format                                   : Matroska
  6. Format version                           : Version 4
  7. File size                                : 10.00 GiB
  8. Duration                                 : 1 h 38 min
  9. Overall bit rate                         : 14.5 Mb/s
  10. Encoded date                             : UTC 2022-06-18 14:09:47
  11. Writing application                      : mkvmerge v55.0.0 ('Waiting For Space') 64-bit
  12. Writing library                          : libebml v1.4.2 + libmatroska v1.6.4
  13. Video
  14. ID                                       : 1
  15. Format                                   : AVC
  16. Format/Info                              : Advanced Video Codec
  17. Format profile                           : High@L4.1
  18. Format settings                          : CABAC / 4 Ref Frames
  19. Format settings, CABAC                   : Yes
  20. Format settings, Reference frames        : 4 frames
  21. Codec ID                                 : V_MPEG4/ISO/AVC
  22. Duration                                 : 1 h 38 min
  23. Bit rate                                 : 13.6 Mb/s
  24. Width                                    : 1 920 pixels
  25. Height                                   : 1 080 pixels
  26. Display aspect ratio                     : 16:9
  27. Frame rate mode                          : Constant
  28. Frame rate                               : 24.000 FPS
  29. Color space                              : YUV
  30. Chroma subsampling                       : 4:2:0
  31. Bit depth                                : 8 bits
  32. Scan type                                : Progressive
  33. Bits/(Pixel*Frame)                       : 0.274
  34. Stream size                              : 9.38 GiB (94%)
  35. Writing library                          : x264 core 129 r2245 bc13772
  36. Encoding settings                        : cabac=1 / ref=4 / deblock=1:-3:-3 / analyse=0x3:0x133 / me=umh / subme=11 / psy=1 / psy_rd=1.05:0.05 / mixed_ref=1 / me_range=64 / chroma_me=1 / trellis=2 / 8x8dct=1 / cqm=0 / deadzone=21,11 / fast_pskip=0 / chroma_qp_offset=-3 / threads=24 / lookahead_threads=4 / sliced_threads=0 / nr=0 / decimate=1 / interlaced=0 / NTMzNTQ= / bluray_compat=0 / constrained_intra=0 / bframes=10 / b_pyramid=2 / b_adapt=2 / b_bias=0 / direct=3 / weightb=1 / open_gop=0 / weightp=2 / keyint=250 / keyint_min=24 / NTMzNTQ=uuDQuD2mJt9fsCf / scenecut=40 / intra_refresh=0 / rc_lookahead=60 / rc=2pass / mbtree=1 / bitrate=13646 / ratetol=1.0 / qcomp=0.60 / qpmin=0 / qpmax=69 / qpstep=4 / cplxblur=20.0 / qblur=0.5 / vbv_maxrate=40000 / vbv_bufsize=30000 / nal_hrd=none / NTMzNTQ=LmsMAP37EqsCpk / ip_ratio=1.40 / aq=1:0.80
  37. Language                                 : English
  38. Default                                  : Yes
  39. Forced                                   : No
  40. Audio #1
  41. ID                                       : 2
  42. Format                                   : AC-3
  43. Format/Info                              : Audio Coding 3
  44. Commercial name                          : Dolby Digital
  45. Codec ID                                 : A_AC3
  46. Duration                                 : 1 h 38 min
  47. Bit rate mode                            : Constant
  48. Bit rate                                 : 448 kb/s
  49. Channel(s)                               : 2 channels
  50. Channel layout                           : L R
  51. Sampling rate                            : 48.0 kHz
  52. Frame rate                               : 31.250 FPS (1536 SPF)
  53. Compression mode                         : Lossy
  54. Stream size                              : 315 MiB (3%)
  55. Title                                    : 粤语
  56. Language                                 : Chinese
  57. Service kind                             : Complete Main
  58. Default                                  : Yes
  59. Forced                                   : No
  60. Audio #2
  61. ID                                       : 3
  62. Format                                   : AC-3
  63. Format/Info                              : Audio Coding 3
  64. Commercial name                          : Dolby Digital
  65. Codec ID                                 : A_AC3
  66. Duration                                 : 1 h 38 min
  67. Bit rate mode                            : Constant
  68. Bit rate                                 : 448 kb/s
  69. Channel(s)                               : 2 channels
  70. Channel layout                           : L R
  71. Sampling rate                            : 48.0 kHz
  72. Frame rate                               : 31.250 FPS (1536 SPF)
  73. Compression mode                         : Lossy
  74. Stream size                              : 315 MiB (3%)
  75. Title                                    : 普通话
  76. Language                                 : Chinese
  77. Service kind                             : Complete Main
  78. Default                                  : No
  79. Forced                                   : No
  80. Text #1
  81. ID                                       : 4
  82. Format                                   : UTF-8
  83. Codec ID                                 : S_TEXT/UTF8
  84. Codec ID/Info                            : UTF-8 Plain Text
  85. Duration                                 : 1 h 35 min
  86. Bit rate                                 : 44 b/s
  87. Count of elements                        : 1358
  88. Stream size                              : 31.2 KiB (0%)
  89. Title                                    : 简体
  90. Language                                 : Chinese
  91. Default                                  : Yes
  92. Forced                                   : No
  93. Text #2
  94. ID                                       : 5
  95. Format                                   : UTF-8
  96. Codec ID                                 : S_TEXT/UTF8
  97. Codec ID/Info                            : UTF-8 Plain Text
  98. Duration                                 : 1 h 35 min
  99. Bit rate                                 : 44 b/s
  100. Count of elements                        : 1358
  101. Stream size                              : 31.2 KiB (0%)
  102. Title                                    : 繁体
  103. Language                                 : Chinese
  104. Default                                  : No
  105. Forced                                   : No





此处一般会放置磁力链或种子下载链接,不过此链接需要注册会员才能看到,点击“立即注册”
磁力链下载【下载链接仅对注册会员开放,登陆后可见】
BT9527电影天堂 1、BT9527电影天堂提供的BT文件均来源于互联网抓取,只供网友学习交流、技术提升使用。
2、我们遵守BitTorrent点对点协议原则,任何版权问题请联系原资源发布商,我们不处理任何版权纠纷,谢谢!如有争议请联系邮箱:BT9527#hotmail.com(#换成@)
3、如果您发现某页面或地址有错误,请联系站长邮箱BT9527#hotmail.com(#换成@),我们会尽快处理。您的热心是对BT9527电影天堂最大的支持。
4、本站建议去正规影院观看电影以支持电影行业发展。
最新回复 (0)

你可以在 登录 or 注册 后,对此帖发表评论!

返回
发新帖