危险情人[粤语音轨/简繁字幕].The.Shootout.1992.1080p.BluRay.x265.10bit-HomeHD 5.56GB

版主小s 5月前 381

✔资源类型:暂未分类   ✔电影年份:更 早   ✔电影地区:香港   ✔电影分类:剧情

◎译  名 危险情人 / The Shootout
◎片  名 危險情人
◎年  代 1992
◎产  地 中国香港
◎类  别 剧情 / 爱情 / 犯罪
◎语  言 粤语
◎上映日期 1992-06-27
◎IMDb链接 https://www.imdb.com/title/tt0105797/
◎豆瓣评分 6.4/10 (961人评价)
◎豆瓣链接 https://movie.douban.com/subject/1863735/
◎片  长 95 分钟
◎导  演 麦当杰 Michael Mak (id:1324928)
◎编  剧 邓景生 Edward Tang (id:1298905)
◎演  员 郭富城 Aaron Kwok (id:1041390)
       刘青云 Sean Lau (id:1007251)
       袁洁莹 Fennie Yuen (id:1051082)
       梁家仁 Ka-Yan Leung (id:1008125)
       徐锦江 Elvis Tsui (id:1028828)
       吴青谋 Ching-Mau Ng (id:1411543)
       李英杰 Ying Kit Lee (id:1412104)
       黄仲渠 Chung Kui Wong (id:1417513)
       罗树琪 Shu-Kei Law (id:1394347)
       成龙 Jackie Chan (id:1054531)
       黄少雄 David Wong (id:1431239)
       陈永良 Wing-leung Chan (id:1363084)
       倪雪 Xue Ni (id:1359488)
       罗礼贤 Bruce Law (id:1289542)

◎简  介
  汉(徐锦江 饰)、希、官、Bonnie(苑琼丹 饰)是四个银行劫匪。他们劫持了一辆运钞车,汉与希阻断追捕的警察,官和Bonnie在逃亡中遭遇小警察家辉(郭富城 饰),官不慎跌下机车,被家辉捉住。得知同伙落网,冷血的汉冲入警署,在众目睽睽之下枪杀官以灭口。                                    
                                由于情节严重,警署将家辉和女警员珊调入重案组协助调查。二人与冤家对头的两位警探刘(刘青云 饰)和马合作,先从押运员入手,顺藤摸瓜至某卡拉OK厅。家辉与纯情女歌手敏(袁洁莹 饰)坠入情网。不久,更从敏处得知运钞车劫匪的线索……
  1. ##### MediaInfo ######
  2. General
  3. Unique ID                                : 114744313835674622335859524070186773041 (0x5652F37480822EC04F1F0E544DFD6A31)
  4. Complete name                            : The.Shootout.1992.1080p.BluRay.x265.10bit-HomeHD.mkv
  5. Format                                   : Matroska
  6. Format version                           : Version 4
  7. File size                                : 5.56 GiB
  8. Duration                                 : 1 h 38 min
  9. Overall bit rate                         : 8 081 kb/s
  10. Encoded date                             : UTC 2022-06-18 14:13:21
  11. Writing application                      : mkvmerge v55.0.0 ('Waiting For Space') 64-bit
  12. Writing library                          : libebml v1.4.2 + libmatroska v1.6.4
  13. Video
  14. ID                                       : 1
  15. Format                                   : HEVC
  16. Format/Info                              : High Efficiency Video Coding
  17. Format profile                           : Main 10@L5@Main
  18. Codec ID                                 : V_MPEGH/ISO/HEVC
  19. Duration                                 : 1 h 38 min
  20. Bit rate                                 : 7 182 kb/s
  21. Width                                    : 1 920 pixels
  22. Height                                   : 1 080 pixels
  23. Display aspect ratio                     : 16:9
  24. Frame rate mode                          : Constant
  25. Frame rate                               : 24.000 FPS
  26. Color space                              : YUV
  27. Chroma subsampling                       : 4:2:0
  28. Bit depth                                : 10 bits
  29. Bits/(Pixel*Frame)                       : 0.144
  30. Stream size                              : 4.94 GiB (89%)
  31. Default                                  : Yes
  32. Forced                                   : No
  33. Audio #1
  34. ID                                       : 2
  35. Format                                   : AC-3
  36. Format/Info                              : Audio Coding 3
  37. Commercial name                          : Dolby Digital
  38. Codec ID                                 : A_AC3
  39. Duration                                 : 1 h 38 min
  40. Bit rate mode                            : Constant
  41. Bit rate                                 : 448 kb/s
  42. Channel(s)                               : 2 channels
  43. Channel layout                           : L R
  44. Sampling rate                            : 48.0 kHz
  45. Frame rate                               : 31.250 FPS (1536 SPF)
  46. Compression mode                         : Lossy
  47. Stream size                              : 315 MiB (6%)
  48. Title                                    : 粤语
  49. Language                                 : Chinese
  50. Service kind                             : Complete Main
  51. Default                                  : Yes
  52. Forced                                   : No
  53. Audio #2
  54. ID                                       : 3
  55. Format                                   : AC-3
  56. Format/Info                              : Audio Coding 3
  57. Commercial name                          : Dolby Digital
  58. Codec ID                                 : A_AC3
  59. Duration                                 : 1 h 38 min
  60. Bit rate mode                            : Constant
  61. Bit rate                                 : 448 kb/s
  62. Channel(s)                               : 2 channels
  63. Channel layout                           : L R
  64. Sampling rate                            : 48.0 kHz
  65. Frame rate                               : 31.250 FPS (1536 SPF)
  66. Compression mode                         : Lossy
  67. Stream size                              : 315 MiB (6%)
  68. Title                                    : 普通话
  69. Language                                 : Chinese
  70. Service kind                             : Complete Main
  71. Default                                  : No
  72. Forced                                   : No
  73. Text #1
  74. ID                                       : 4
  75. Format                                   : UTF-8
  76. Codec ID                                 : S_TEXT/UTF8
  77. Codec ID/Info                            : UTF-8 Plain Text
  78. Duration                                 : 1 h 35 min
  79. Bit rate                                 : 44 b/s
  80. Count of elements                        : 1358
  81. Stream size                              : 31.2 KiB (0%)
  82. Title                                    : 简体
  83. Language                                 : Chinese
  84. Default                                  : Yes
  85. Forced                                   : No
  86. Text #2
  87. ID                                       : 5
  88. Format                                   : UTF-8
  89. Codec ID                                 : S_TEXT/UTF8
  90. Codec ID/Info                            : UTF-8 Plain Text
  91. Duration                                 : 1 h 35 min
  92. Bit rate                                 : 44 b/s
  93. Count of elements                        : 1358
  94. Stream size                              : 31.2 KiB (0%)
  95. Title                                    : 繁体
  96. Language                                 : Chinese
  97. Default                                  : No
  98. Forced                                   : No





此处一般会放置磁力链或种子下载链接,不过此链接需要注册会员才能看到,点击“立即注册”
磁力链下载【下载链接仅对注册会员开放,登陆后可见】
BT9527电影天堂 1、BT9527电影天堂提供的BT文件均来源于互联网抓取,只供网友学习交流、技术提升使用。
2、我们遵守BitTorrent点对点协议原则,任何版权问题请联系原资源发布商,我们不处理任何版权纠纷,谢谢!如有争议请联系邮箱:BT9527#hotmail.com(#换成@)
3、如果您发现某页面或地址有错误,请联系站长邮箱BT9527#hotmail.com(#换成@),我们会尽快处理。您的热心是对BT9527电影天堂最大的支持。
4、本站建议去正规影院观看电影以支持电影行业发展。
最新回复 (0)

你可以在 登录 or 注册 后,对此帖发表评论!

返回