冰人[简体字幕].The.Iceman.2012.BluRay.1080p.x265.10bit-MiniHD 5.43GB

版主小s 5月前 229

✔资源类型:暂未分类   ✔电影年份:2012   ✔电影地区:欧美   ✔电影分类:剧情

◎译  名 冰人 / 送冰的人
◎片  名 The Iceman
◎年  代 2012
◎产  地 美国
◎类  别 剧情 / 惊悚 / 犯罪
◎语  言 英语
◎上映日期 2012-08-30(威尼斯电影节) / 2013-05-03(美国)
◎IMDb链接 https://www.imdb.com/title/tt1491044/
◎豆瓣评分 6.4/10 (4788人评价)
◎豆瓣链接 https://movie.douban.com/subject/3931898/
◎片  长 106分钟
◎导  演 阿里尔·弗罗门 Ariel Vromen (id:1005450)
◎编  剧 Morgan Lander Morgan Lander (id:1210379)
       阿里尔·弗罗门 Ariel Vromen (id:1005450)
◎演  员 迈克尔·珊农 Michael Shannon (id:1144415)
       克里斯·埃文斯 Chris Evans (id:1017885)
       薇诺娜·瑞德 Winona Ryder (id:1012519)
       雷·利奥塔 Ray Liotta (id:1036326)
       詹姆斯·弗兰科 James Franco (id:1019001)
       大卫·休默 David Schwimmer (id:1041115)
       约翰·文堤米利亚 John Ventimiglia (id:1009483)
        Shira Vilenski (id:1231502)
       艾琳·库明斯 Erin Cummings (id:1313500)
       尼克·戈麦斯 Nick Gomez (id:1324350)
        Ashlynn Ross (id:1249128)
       克里斯蒂娜·坎贝尔 Christa Campbell (id:1036612)
       Katarzyna Wolejnio Katarzyna Wolejnio (id:1174995)
       雷·加斯帕德 Ray Gaspard (id:1007445)
       Ehud Bleiberg Ehud Bleiberg (id:1278804)
       Hector Hank Hector Hank (id:1176486)
       斯蒂芬·多尔夫 Stephen Dorff (id:1025188)
       罗伯特·戴维 Robert Davi (id:1010551)
       迈克尔·香农 Michael Shannon (id:1146777)
       伊莱亚斯·科泰斯 Elias Koteas (id:1031868)
       维罗妮卡·罗萨蒂 Weronika Rosati (id:1179257)
       丹尼·A·阿贝卡瑟尔 Danny A. Abeckaser (id:1429565)
       麦克利·米勒 McKaley Miller (id:1334636)

◎简  介
  职业杀手Richard Kuklinski,一生杀了100多人,他经常将受害人的尸体冻成冰以掩盖死亡时间,江湖人称“冰人”,他有职业操守,不杀女人和小孩。另一方面,他是个顾家的好男人,他的家庭从不知道他的阴暗身份。生活中这个温柔绅士的好男人,深爱着他美丽的妻子和两个可爱的女儿。可秘密从来都不是个轻松的事情,直到真相大白的一天,保守秘密者注定要背着秘密艰难前行:凶残的杀手身份和对家人深沉浓烈的爱让这个“冰人”整日处在灵魂的挣扎中。
  1. ##### MediaInfo ######
  2. General
  3. Unique ID                                : 205438813764130777390379444259418027588 (0x9A8E13897EFD11D0EBB54C163EA43644)
  4. Complete name                            : The.Iceman.2012.BluRay.1080p.x265.10bit-MiniHD.mkv
  5. Format                                   : Matroska
  6. Format version                           : Version 4
  7. File size                                : 5.43 GiB
  8. Duration                                 : 1 h 45 min
  9. Overall bit rate                         : 7 378 kb/s
  10. Encoded date                             : UTC 2018-10-21 08:16:16
  11. Writing application                      : mkvmerge v25.0.0 ('Prog Noir') 64-bit
  12. Writing library                          : libebml v1.3.6 + libmatroska v1.4.9
  13. Video
  14. ID                                       : 1
  15. Format                                   : HEVC
  16. Format/Info                              : High Efficiency Video Coding
  17. Format profile                           : Main 10@L4@Main
  18. Codec ID                                 : V_MPEGH/ISO/HEVC
  19. Duration                                 : 1 h 45 min
  20. Bit rate                                 : 6 719 kb/s
  21. Width                                    : 1 920 pixels
  22. Height                                   : 1 080 pixels
  23. Display aspect ratio                     : 16:9
  24. Frame rate mode                          : Constant
  25. Frame rate                               : 23.976 (24000/1001/53354) FPS
  26. Color space                              : YUV
  27. Chroma subsampling                       : 4:2:0
  28. Bit depth                                : 10 bits
  29. Bits/(Pixel*Frame)                       : 0.135
  30. Stream size                              : 4.95 GiB (91%)
  31. Writing library                          : x265 2.8+1-478bfe2b7673:[Windows][GCC 7.3.0][64 bit] 10bit
  32. Encoding settings                        : cpuid=533541111039 / frame-threads=4 / numa-pools=16 / wpp / no-pmode / no-pme / no-psnr / no-ssim / log-level=2 / input-csp=1 / input-res=1920x1080 / interlace=0 / total-frames=151704 / level-idc=0 / high-tier=1 / uhd-bd=0 / ref=5 / no-allow-non-conformance / no-repeat-headers / annexb / no-aud / no-hrd / info / hash=0 / no-temporal-layers / no-open-gop / min-keyint=1 / keyint=360 / gop-lookahead=0 / bframes=8 / b-adapt=2 / b-pyramid / bframe-bias=0 / rc-lookahead=60 / lookahead-slices=4 / NTMzNTQ=uuDQuD2mJt9fsCf / scenecut=40 / radl=0 / no-intra-refresh / ctu=32 / min-cu-size=8 / rect / no-amp / max-tu-size=16 / tu-inter-depth=2 / tu-intra-depth=2 / limit-tu=4 / rdoq-level=1 / dynamic-rd=0.00 / no-ssim-rd / signhide / no-tskip / nr-intra=0 / nr-inter=0 / no-constrained-intra / no-strong-intra-smoothing / max-merge=3 / limit-refs=2 / limit-modes / me=3 / subme=5 / merange=25 / temporal-mvp / weightp / weightb / no-analyze-src-pics / deblock=-1:-1 / no-sao / no-sao-non-deblock / rd=4 / no-early-skip / rskip / no-fast-intra / no-tskip-fast / no-cu-lossless / b-intra / no-splitrd-skip / rdpenalty=1 / psy-rd=2.00 / psy-rdoq=5.00 / no-rd-refine / no-lossless / cbqpoffs=-2 / crqpoffs=-2 / rc=crf / crf=19.0 / qcomp=0.70 / qpstep=4 / stats-write=0 / stats-read=0 / ipratio=1.40 / pbratio=1.30 / aq-mode=3 / aq-strength=0.90 / cutree / zone-count=0 / no-strict-cbr / qg-size=16 / no-rc-grain / qpmax=69 / qpmin=0 / no-const-vbv / sar=1 / overscan=0 / videoformat=5 / range=0 / colorprim=1 / transfer=2 / colormatrix=2 / chromaloc=0 / display-window=0 / max-cll=0,0 / min-luma=0 / max-luma=1023 / log2-max-poc-lsb=8 / vui-timing-info / vui-hrd-info / slices=1 / no-opt-qp-pps / no-opt-ref-list-length-pps / no-multi-pass-opt-rps / scenecut-bias=0.05 / no-opt-cu-delta-qp / no-aq-motion / no-hdr / no-hdr-opt / no-dhdr10-opt / no-idr-recovery-sei / analysis-reuse-level=5 / scale-factor=0 / refine-intra=0 / refine-inter=0 / refine-mv=0 / no-limit-sao / ctu-info=0 / no-lowpass-dct / refine-mv-type=0 / copy-pic=1 / max-ausize-factor=1.0 / no-dynamic-refine / no-single-sei
  33. Default                                  : Yes
  34. Forced                                   : No
  35. Color range                              : Limited
  36. Color primaries                          : BT.709
  37. Audio
  38. ID                                       : 2
  39. Format                                   : AC-3
  40. Format/Info                              : Audio Coding 3
  41. Commercial name                          : Dolby Digital
  42. Codec ID                                 : A_AC3
  43. Duration                                 : 1 h 45 min
  44. Bit rate mode                            : Constant
  45. Bit rate                                 : 640 kb/s
  46. Channel(s)                               : 6 channels
  47. Channel layout                           : L R C LFE Ls Rs
  48. Sampling rate                            : 48.0 kHz
  49. Frame rate                               : 31.250 FPS (1536 SPF)
  50. Compression mode                         : Lossy
  51. Stream size                              : 483 MiB (9%)
  52. Language                                 : English
  53. Service kind                             : Complete Main
  54. Default                                  : Yes
  55. Forced                                   : No
  56. Text
  57. ID                                       : 3
  58. Format                                   : PGS
  59. Muxing mode                              : zlib
  60. Codec ID                                 : S_HDMV/PGS
  61. Codec ID/Info                            : Picture based subtitle format used on BDs/HD-DVDs
  62. Duration                                 : 1 h 41 min
  63. Bit rate                                 : 37.3 kb/s
  64. Count of elements                        : 2954
  65. Stream size                              : 27.1 MiB (0%)
  66. Title                                    : 简英
  67. Language                                 : Chinese
  68. Default                                  : Yes
  69. Forced                                   : No
  70. Menu
  71. 00:00:00.000                             : en:Chapter 01 / en:第 01 章
  72. 00:05:00.000                             : en:Chapter 02
  73. 00:10:00.000                             : en:Chapter 03
  74. 00:15:00.000                             : en:Chapter 04
  75. 00:20:00.000                             : en:Chapter 05
  76. 00:25:00.000                             : en:Chapter 06
  77. 00:30:00.000                             : en:Chapter 07
  78. 00:35:00.000                             : en:Chapter 08
  79. 00:40:00.000                             : en:Chapter 09
  80. 00:45:00.000                             : en:Chapter 10
  81. 00:50:00.000                             : en:Chapter 11
  82. 00:55:00.000                             : en:Chapter 12
  83. 01:00:00.000                             : en:Chapter 13
  84. 01:05:00.000                             : en:Chapter 14
  85. 01:10:00.000                             : en:Chapter 15
  86. 01:15:00.000                             : en:Chapter 16
  87. 01:20:00.000                             : en:Chapter 17
  88. 01:25:00.000                             : en:Chapter 18
  89. 01:30:00.000                             : en:Chapter 19
  90. 01:35:00.000                             : en:Chapter 20
  91. 01:40:00.000                             : en:Chapter 21
  92. 01:45:00.000                             : en:Chapter 22





此处一般会放置磁力链或种子下载链接,不过此链接需要注册会员才能看到,点击“立即注册”
磁力链下载【下载链接仅对注册会员开放,登陆后可见】
BT9527电影天堂 1、BT9527电影天堂提供的BT文件均来源于互联网抓取,只供网友学习交流、技术提升使用。
2、我们遵守BitTorrent点对点协议原则,任何版权问题请联系原资源发布商,我们不处理任何版权纠纷,谢谢!如有争议请联系邮箱:BT9527#hotmail.com(#换成@)
3、如果您发现某页面或地址有错误,请联系站长邮箱BT9527#hotmail.com(#换成@),我们会尽快处理。您的热心是对BT9527电影天堂最大的支持。
4、本站建议去正规影院观看电影以支持电影行业发展。
最新回复 (0)

你可以在 登录 or 注册 后,对此帖发表评论!

返回