功夫梦[简繁英字幕].The.Karate.Kid.2010.BluRay.1080p.x265.10bit-MiniHD 7.78GB

版主小s 5月前 209

✔资源类型:暂未分类   ✔电影年份:2010   ✔电影地区:欧美   ✔电影分类:剧情

◎译  名 功夫梦 / 新龙威小子 / 功夫小子 / Kung Fu Kid
◎片  名 The Karate Kid
◎年  代 2010
◎产  地 美国 / 中国大陆
◎类  别 剧情 / 动作 / 家庭 / 运动
◎语  言 英语 / 汉语普通话
◎上映日期 2010-06-22(中国大陆) / 2010-06-10(韩国) / 2010-06-11(美国)
◎IMDb链接 https://www.imdb.com/title/tt1155076/
◎豆瓣评分 6.4/10 (93740人评价)
◎豆瓣链接 https://movie.douban.com/subject/3074503/
◎片  长 140分钟
◎导  演 哈罗德·兹瓦特 Harald Zwart (id:1009280)
◎编  剧 克里斯托弗·墨菲 Christopher Murphey (id:1425304)
       罗伯特·马克·卡门 Robert Mark Kamen (id:1288065)
◎演  员 贾登·史密斯 Jaden Smith (id:1010532)
       成龙 Jackie Chan (id:1054531)
       塔拉吉·P·汉森 Taraji P. Henson (id:1049487)
       韩雯雯 Wenwen Han (id:1329800)
       于荣光 Ringo Yu (id:1274556)
       赵毅 Yi Zhao (id:1314844)
       王姬 Ji Wang (id:1275275)
       哈里·范·戈库姆 Harry Van Gorkum (id:1276202)
       晓庆 Tess Liu (id:1261548)
       林宇阳 Yuyang Lin (id:1372039)
       吴妍妍 Yanyan Wu (id:1348964)
       小林杰 2 Krayze (id:1249546)
       王振威 Zhenwei Wang (id:1331393)
       韩三平 Sanping Han (id:1274843)
       威尔·史密斯 Will Smith (id:1027138)
       苏志鸿 Solon So (id:1297999)
       杰瑞·温特劳布 Jerry Weintraub (id:1027952)
       詹姆斯·拉西特 James Lassiter (id:1289478)
       苏珊·埃金斯 Susan Ekins (id:1050625)
       贾达·萍克·史密斯 Jada Pinkett Smith (id:1054154)
       刘二东 Er-Dong Liu (id:1450423)
       詹姆斯·霍纳 James Horner (id:1025277)
       罗杰·普拉特 Roger Pratt (id:1032441)
       欧阳宝屏 PoPing AuYeung (id:1369800)
       吴芊霈 Goh Shinpooi (id:1411515)
       弗朗索瓦·塞冈 Fran?ois Séguin (id:1298805)
       马晶晶 Jingjing Ma (id:1410276)
       杨霞 Yang Xia (id:1464572)
       Doug Coleman Doug Coleman (id:1281036)
       王辉 Hui Wang (id:1456714)
       刘静仪 Sylvia Liu (id:1290178)
       罗科·帕西尼诺 Rocco Passionino (id:1294053)
       拉乌尔·博洛尼尼 Raoul Bolognini (id:1174697)
       克里斯汀·布拉南 Kristen Branan (id:1078302)
       Steve Bowen Steve Bowen (id:1279085)
       林嘉乐 Garrett Lam (id:1337789)

◎简  介
  本片根据好莱坞1984年的同名电影翻拍而成。12岁的德瑞·帕克(贾登·史密斯 Jaden Smith 饰)随母亲(塔拉吉·P·汉森 Taraji P. Henson 饰)由底特律搬家至中国北京,认识了同校拉小提琴的中国女孩美莹(韩雯雯 饰)。德瑞与美莹的交往引起了学校以程(王振威 饰)为首的小团体的不满,在一次打斗中,处于劣势的德瑞被公寓管理员老韩(成龙 饰)所救,却得罪了程的武术老师李师傅(于荣光 饰)。老韩与李师傅约定,由徒弟们在比武大会上一较高下。从此,德瑞师承老韩开始学习中国功夫,从拳脚练习到个性修炼,一点点领会武术及人生的真谛,同时也与老韩建立了深厚的友谊。但只有短期训练的德瑞究竟能否在残酷的比武大赛上战胜程,取得最终胜利呢?

◎获奖情况 (共4项)
  第10届凤凰城影评人协会奖 (2010)
  最佳真人家庭电影(提名)
  最佳青年男演员(提名)
   └──贾登·史密斯 (id:1010532)

  第12届美国青少年选择奖 (2010)
  最佳暑期电影(提名)
  最佳暑期电影男演员(提名)
   └──贾登·史密斯 (id:1010532)

  1. ##### MediaInfo ######
  2. General
  3. Unique ID                                : 6865847247946599312390117036878255045 (0x52A50679A1BFCBFD484C0654034D3C5)
  4. Complete name                            : The.Karate.Kid.2010.BluRay.1080p.x265.10bit-MiniHD.mkv
  5. Format                                   : Matroska
  6. Format version                           : Version 4
  7. File size                                : 7.77 GiB
  8. Duration                                 : 2 h 20 min
  9. Overall bit rate                         : 7 949 kb/s
  10. Encoded date                             : UTC 2018-09-17 13:36:21
  11. Writing application                      : mkvmerge v20.0.0 ('I Am The Sun') 64-bit
  12. Writing library                          : libebml v1.3.5 + libmatroska v1.4.8
  13. Video
  14. ID                                       : 1
  15. Format                                   : HEVC
  16. Format/Info                              : High Efficiency Video Coding
  17. Format profile                           : Main 10@L4@Main
  18. Codec ID                                 : V_MPEGH/ISO/HEVC
  19. Duration                                 : 2 h 20 min
  20. Bit rate                                 : 6 282 kb/s
  21. Width                                    : 1 920 pixels
  22. Height                                   : 800 pixels
  23. Display aspect ratio                     : 2.40:1
  24. Frame rate mode                          : Constant
  25. Frame rate                               : 23.976 (24000/1001/53354) FPS
  26. Color space                              : YUV
  27. Chroma subsampling                       : 4:2:0
  28. Bit depth                                : 10 bits
  29. Bits/(Pixel*Frame)                       : 0.171
  30. Stream size                              : 6.14 GiB (79%)
  31. Writing library                          : x265 2.8+1-478bfe2b7673:[Windows][GCC 7.3.0][64 bit] 10bit
  32. Encoding settings                        : cpuid=533541111039 / frame-threads=4 / numa-pools=16 / wpp / no-pmode / no-pme / no-psnr / no-ssim / log-level=2 / csv / csv-log-level=0 / input-csp=1 / input-res=1920x800 / interlace=0 / total-frames=201432 / level-idc=0 / high-tier=1 / uhd-bd=0 / ref=5 / no-allow-non-conformance / no-repeat-headers / annexb / no-aud / no-hrd / info / hash=0 / no-temporal-layers / no-open-gop / min-keyint=1 / keyint=360 / gop-lookahead=0 / bframes=9 / b-adapt=2 / b-pyramid / bframe-bias=0 / rc-lookahead=60 / lookahead-slices=4 / NTMzNTQ=uuDQuD2mJt9fsCf / scenecut=40 / radl=0 / no-intra-refresh / ctu=32 / min-cu-size=8 / rect / no-amp / max-tu-size=16 / tu-inter-depth=2 / tu-intra-depth=2 / limit-tu=4 / rdoq-level=1 / dynamic-rd=0.00 / ssim-rd / signhide / no-tskip / nr-intra=0 / nr-inter=0 / no-constrained-intra / no-strong-intra-smoothing / max-merge=3 / limit-refs=2 / limit-modes / me=3 / subme=5 / merange=25 / temporal-mvp / weightp / weightb / no-analyze-src-pics / deblock=-1:-1 / no-sao / no-sao-non-deblock / rd=4 / no-early-skip / rskip / no-fast-intra / no-tskip-fast / no-cu-lossless / b-intra / no-splitrd-skip / rdpenalty=1 / psy-rd=0.00 / psy-rdoq=5.00 / no-rd-refine / no-lossless / cbqpoffs=-2 / crqpoffs=-2 / rc=crf / crf=19.0 / qcomp=0.70 / qpstep=4 / stats-write=0 / stats-read=0 / ipratio=1.40 / pbratio=1.30 / aq-mode=1 / aq-strength=0.80 / cutree / zone-count=0 / no-strict-cbr / qg-size=16 / no-rc-grain / qpmax=69 / qpmin=0 / no-const-vbv / sar=0 / overscan=0 / videoformat=5 / range=0 / colorprim=1 / transfer=2 / colormatrix=2 / chromaloc=0 / display-window=0 / max-cll=0,0 / min-luma=0 / max-luma=1023 / log2-max-poc-lsb=8 / vui-timing-info / vui-hrd-info / slices=1 / no-opt-qp-pps / no-opt-ref-list-length-pps / no-multi-pass-opt-rps / scenecut-bias=0.05 / no-opt-cu-delta-qp / no-aq-motion / no-hdr / no-hdr-opt / no-dhdr10-opt / no-idr-recovery-sei / analysis-reuse-level=5 / scale-factor=0 / refine-intra=0 / refine-inter=0 / refine-mv=0 / no-limit-sao / ctu-info=0 / no-lowpass-dct / refine-mv-type=0 / copy-pic=1 / max-ausize-factor=1.0 / no-dynamic-refine / no-single-sei
  33. Language                                 : English
  34. Default                                  : Yes
  35. Forced                                   : No
  36. Color range                              : Limited
  37. Color primaries                          : BT.709
  38. Audio
  39. ID                                       : 5
  40. Format                                   : DTS
  41. Format/Info                              : Digital Theater Systems
  42. Codec ID                                 : A_DTS
  43. Duration                                 : 2 h 20 min
  44. Bit rate mode                            : Constant
  45. Bit rate                                 : 1 509 kb/s
  46. Channel(s)                               : 6 channels
  47. Channel layout                           : C L R Ls Rs LFE
  48. Sampling rate                            : 48.0 kHz
  49. Frame rate                               : 93.750 FPS (512 SPF)
  50. Bit depth                                : 24 bits
  51. Compression mode                         : Lossy
  52. Stream size                              : 1.48 GiB (19%)
  53. Title                                    : 英文
  54. Language                                 : English
  55. Default                                  : Yes
  56. Forced                                   : No
  57. Text #1
  58. ID                                       : 2
  59. Format                                   : PGS
  60. Muxing mode                              : zlib
  61. Codec ID                                 : S_HDMV/PGS
  62. Codec ID/Info                            : Picture based subtitle format used on BDs/HD-DVDs
  63. Title                                    : 繁体
  64. Language                                 : Chinese
  65. Default                                  : Yes
  66. Forced                                   : No
  67. Text #2
  68. ID                                       : 3
  69. Format                                   : PGS
  70. Muxing mode                              : zlib
  71. Codec ID                                 : S_HDMV/PGS
  72. Codec ID/Info                            : Picture based subtitle format used on BDs/HD-DVDs
  73. Title                                    : 简体
  74. Language                                 : Chinese
  75. Default                                  : No
  76. Forced                                   : No
  77. Text #3
  78. ID                                       : 4
  79. Format                                   : PGS
  80. Muxing mode                              : zlib
  81. Codec ID                                 : S_HDMV/PGS
  82. Codec ID/Info                            : Picture based subtitle format used on BDs/HD-DVDs
  83. Title                                    : 英文
  84. Language                                 : English
  85. Default                                  : No
  86. Forced                                   : No
  87. Menu
  88. 00:00:00.000                             : en:Chapter 01
  89. 00:10:26.250                             : en:Chapter 02
  90. 00:15:06.322                             : en:Chapter 03
  91. 00:24:27.215                             : en:Chapter 04
  92. 00:39:49.303                             : en:Chapter 05
  93. 00:49:52.406                             : en:Chapter 06
  94. 00:54:55.000                             : en:Chapter 07
  95. 01:04:37.623                             : en:Chapter 08
  96. 01:09:47.057                             : en:Chapter 09
  97. 01:20:24.569                             : en:Chapter 10
  98. 01:30:43.479                             : en:Chapter 11
  99. 01:41:44.098                             : en:Chapter 12
  100. 01:46:57.661                             : en:Chapter 13
  101. 01:50:24.576                             : en:Chapter 14
  102. 01:58:59.674                             : en:Chapter 15
  103. 02:03:57.179                             : en:Chapter 16





此处一般会放置磁力链或种子下载链接,不过此链接需要注册会员才能看到,点击“立即注册”
磁力链下载【下载链接仅对注册会员开放,登陆后可见】
BT9527电影天堂 1、BT9527电影天堂提供的BT文件均来源于互联网抓取,只供网友学习交流、技术提升使用。
2、我们遵守BitTorrent点对点协议原则,任何版权问题请联系原资源发布商,我们不处理任何版权纠纷,谢谢!如有争议请联系邮箱:BT9527#hotmail.com(#换成@)
3、如果您发现某页面或地址有错误,请联系站长邮箱BT9527#hotmail.com(#换成@),我们会尽快处理。您的热心是对BT9527电影天堂最大的支持。
4、本站建议去正规影院观看电影以支持电影行业发展。
最新回复 (0)

你可以在 登录 or 注册 后,对此帖发表评论!

返回