升级[简繁英字幕].Upgrade.2018.BluRay.1080p.1080p.x265.10bit-MiniHD 5.47GB

版主小s 5月前 229

✔资源类型:暂未分类   ✔电影年份:2018   ✔电影地区:欧美   ✔电影分类:动作

◎译  名 升级 / 超能复仇(港) / 人类升级(台) / 2.0人机合一 / Stem
◎片  名 Upgrade
◎年  代 2018
◎产  地 美国 / 澳大利亚
◎类  别 动作 / 科幻 / 惊悚
◎语  言 英语
◎上映日期 2018-03-10(西南偏南电影节) / 2018-06-01(美国)
◎IMDb链接 https://www.imdb.com/title/tt6499752/
◎豆瓣评分 8.1/10 (149100人评价)
◎豆瓣链接 https://movie.douban.com/subject/27093707/
◎片  长 100分钟
◎导  演 雷·沃纳尔 Leigh Whannell (id:1014029)
◎编  剧 雷·沃纳尔 Leigh Whannell (id:1014029)
◎演  员 罗根·马歇尔-格林 Logan Marshall-Green (id:1179434)
       梅拉里·沃列何 Melanie Vallejo (id:1227870)
       哈里森·吉尔伯特森 Harrison Gilbertson (id:1324315)
       本尼迪克·哈迪 Benedict Hardie (id:1365789)
       克里斯托弗·卡比 Christopher Kirby (id:1319984)
       理查德·考索恩 Richard Cawthorne (id:1198148)
       琳达·克罗珀 Linda Cropper (id:1394569)
       贝蒂·加布里埃尔 Betty Gabriel (id:1360187)
       罗斯科·坎贝尔 Rosco Campbell (id:1394568)
       理查德·阿纳斯塔西奥斯 Richard Anastasios (id:1394567)
       史蒂夫·丹尼尔森 Steve Danielsen (id:1399368)
       迈克尔·M·福斯特 Michael M. Foster (id:1394570)
       雷纳·加拉赫 Renah Gallagher (id:1392734)
       克莱顿·雅各布森 Clayton Jacobson (id:1287509)
       萨钦·乔伯 Sachin Joab (id:1394571)
       西蒙·梅登 Simon Maiden (id:1394572)
       道格拉斯·恩布里 Douglas Embry (id:1394573)
       利亚姆·豪沃思 Liam Howarth (id:1394574)
       曼乔特·贾萨尔 Manjot Jassal (id:1399369)
       雷·沃纳尔 Leigh Whannell (id:1014029)
       阿曼·加洛 Aman Gahlot (id:1411055)

◎简  介
  格雷(罗根·马歇尔-格林 Logan Marshall-Green 饰)和女友艾莎(梅拉里·沃列何 Melanie Vallejo 饰)相恋多年,两人之间感情非常要好。一天,格雷带着艾莎去拜访一位名叫艾伦(哈里森·吉尔伯特森 Harrison Gilbertson 饰)的科学家,艾伦设计了人工智能芯片STEM,令艾莎叹为观止。                                    
                                在回去的路上,格雷和艾莎所乘坐的无人驾驶汽车发生了故障,将两人带往了一处暴徒聚集的贫民窟,在那里,两人遭到了袭击,艾莎不幸丧生,而格雷身受重伤下半身瘫痪。心中充满了痛苦和绝望的格雷想为恋人报仇,于是找到了艾伦,将STEM芯片植入了大脑,在STEM的操纵下,格雷重新站了起来。让格雷没有想到的是,STEM的智慧远远超乎他的想象,而他亦被卷入了一个巨大的阴谋之中。

◎获奖情况 (共1项)
  第5届豆瓣电影年度榜单 (2018)
  评分最高的科幻/动作片(提名)

  1. ##### MediaInfo ######
  2. General
  3. Unique ID                                : 25954705004356616120697614992717456799 (0x1386B1C15A08D6AB2E182ECFB2C9259F)
  4. Complete name                            : Upgrade.2018.BluRay.1080p.1080p.x265.10bit-MiniHD.mkv
  5. Format                                   : Matroska
  6. Format version                           : Version 4
  7. File size                                : 5.47 GiB
  8. Duration                                 : 1 h 39 min
  9. Overall bit rate                         : 7 834 kb/s
  10. Encoded date                             : UTC 2018-08-23 01:55:42
  11. Writing application                      : mkvmerge v24.0.0 ('Beyond The Pale') 64-bit
  12. Writing library                          : libebml v1.3.6 + libmatroska v1.4.9
  13. Video
  14. ID                                       : 1
  15. Format                                   : HEVC
  16. Format/Info                              : High Efficiency Video Coding
  17. Format profile                           : Main 10@L4@Main
  18. Codec ID                                 : V_MPEGH/ISO/HEVC
  19. Duration                                 : 1 h 39 min
  20. Bit rate                                 : 7 147 kb/s
  21. Width                                    : 1 920 pixels
  22. Height                                   : 804 pixels
  23. Display aspect ratio                     : 2.40:1
  24. Frame rate mode                          : Constant
  25. Frame rate                               : 23.976 (24000/1001/53354) FPS
  26. Color space                              : YUV
  27. Chroma subsampling                       : 4:2:0
  28. Bit depth                                : 10 bits
  29. Bits/(Pixel*Frame)                       : 0.193
  30. Stream size                              : 4.99 GiB (91%)
  31. Writing library                          : x265 2.8+1-478bfe2b7673:[Windows][GCC 7.3.0][64 bit] 10bit
  32. Encoding settings                        : cpuid=533541111039 / frame-threads=4 / numa-pools=16 / wpp / no-pmode / no-pme / no-psnr / no-ssim / log-level=2 / input-csp=1 / input-res=1920x804 / interlace=0 / total-frames=143725 / level-idc=0 / high-tier=1 / uhd-bd=0 / ref=5 / no-allow-non-conformance / no-repeat-headers / annexb / no-aud / no-hrd / info / hash=0 / no-temporal-layers / no-open-gop / min-keyint=1 / keyint=360 / gop-lookahead=0 / bframes=8 / b-adapt=2 / b-pyramid / bframe-bias=0 / rc-lookahead=60 / lookahead-slices=4 / NTMzNTQ=uuDQuD2mJt9fsCf / scenecut=40 / radl=0 / no-intra-refresh / ctu=32 / min-cu-size=8 / rect / no-amp / max-tu-size=16 / tu-inter-depth=2 / tu-intra-depth=2 / limit-tu=4 / rdoq-level=1 / dynamic-rd=0.00 / no-ssim-rd / signhide / no-tskip / nr-intra=0 / nr-inter=0 / no-constrained-intra / no-strong-intra-smoothing / max-merge=3 / limit-refs=2 / limit-modes / me=3 / subme=5 / merange=25 / temporal-mvp / weightp / weightb / no-analyze-src-pics / deblock=-1:-1 / no-sao / no-sao-non-deblock / rd=4 / no-early-skip / rskip / no-fast-intra / no-tskip-fast / no-cu-lossless / b-intra / no-splitrd-skip / rdpenalty=1 / psy-rd=2.00 / psy-rdoq=5.00 / no-rd-refine / no-lossless / cbqpoffs=-2 / crqpoffs=-2 / rc=crf / crf=18.0 / qcomp=0.70 / qpstep=4 / stats-write=0 / stats-read=0 / ipratio=1.40 / pbratio=1.30 / aq-mode=3 / aq-strength=0.90 / cutree / zone-count=0 / no-strict-cbr / qg-size=16 / no-rc-grain / qpmax=69 / qpmin=0 / no-const-vbv / sar=1 / overscan=0 / videoformat=5 / range=0 / colorprim=1 / transfer=2 / colormatrix=2 / chromaloc=0 / display-window=0 / max-cll=0,0 / min-luma=0 / max-luma=1023 / log2-max-poc-lsb=8 / vui-timing-info / vui-hrd-info / slices=1 / no-opt-qp-pps / no-opt-ref-list-length-pps / no-multi-pass-opt-rps / scenecut-bias=0.05 / no-opt-cu-delta-qp / no-aq-motion / no-hdr / no-hdr-opt / no-dhdr10-opt / no-idr-recovery-sei / analysis-reuse-level=5 / scale-factor=0 / refine-intra=0 / refine-inter=0 / refine-mv=0 / no-limit-sao / ctu-info=0 / no-lowpass-dct / refine-mv-type=0 / copy-pic=1 / max-ausize-factor=1.0 / no-dynamic-refine / no-single-sei
  33. Default                                  : Yes
  34. Forced                                   : No
  35. Color range                              : Limited
  36. Color primaries                          : BT.709
  37. Audio
  38. ID                                       : 2
  39. Format                                   : AC-3
  40. Format/Info                              : Audio Coding 3
  41. Commercial name                          : Dolby Digital
  42. Codec ID                                 : A_AC3
  43. Duration                                 : 1 h 39 min
  44. Bit rate mode                            : Constant
  45. Bit rate                                 : 640 kb/s
  46. Channel(s)                               : 6 channels
  47. Channel layout                           : L R C LFE Ls Rs
  48. Sampling rate                            : 48.0 kHz
  49. Frame rate                               : 31.250 FPS (1536 SPF)
  50. Compression mode                         : Lossy
  51. Stream size                              : 457 MiB (8%)
  52. Language                                 : English
  53. Service kind                             : Complete Main
  54. Default                                  : Yes
  55. Forced                                   : No
  56. Text #1
  57. ID                                       : 3
  58. Format                                   : PGS
  59. Muxing mode                              : zlib
  60. Codec ID                                 : S_HDMV/PGS
  61. Codec ID/Info                            : Picture based subtitle format used on BDs/HD-DVDs
  62. Duration                                 : 1 h 32 min
  63. Bit rate                                 : 17.3 kb/s
  64. Count of elements                        : 2150
  65. Stream size                              : 11.4 MiB (0%)
  66. Language                                 : English
  67. Default                                  : Yes
  68. Forced                                   : No
  69. Text #2
  70. ID                                       : 4
  71. Format                                   : PGS
  72. Muxing mode                              : zlib
  73. Codec ID                                 : S_HDMV/PGS
  74. Codec ID/Info                            : Picture based subtitle format used on BDs/HD-DVDs
  75. Duration                                 : 1 h 32 min
  76. Bit rate                                 : 39.4 kb/s
  77. Count of elements                        : 1673
  78. Stream size                              : 26.0 MiB (0%)
  79. Title                                    : 简英
  80. Language                                 : Chinese
  81. Default                                  : No
  82. Forced                                   : No
  83. Text #3
  84. ID                                       : 5
  85. Format                                   : PGS
  86. Muxing mode                              : zlib
  87. Codec ID                                 : S_HDMV/PGS
  88. Codec ID/Info                            : Picture based subtitle format used on BDs/HD-DVDs
  89. Duration                                 : 1 h 33 min
  90. Bit rate                                 : 16.1 kb/s
  91. Count of elements                        : 2234
  92. Stream size                              : 10.7 MiB (0%)
  93. Title                                    : 简中
  94. Language                                 : Chinese
  95. Default                                  : No
  96. Forced                                   : No
  97. Text #4
  98. ID                                       : 6
  99. Format                                   : PGS
  100. Muxing mode                              : zlib
  101. Codec ID                                 : S_HDMV/PGS
  102. Codec ID/Info                            : Picture based subtitle format used on BDs/HD-DVDs
  103. Duration                                 : 1 h 33 min
  104. Bit rate                                 : 28.3 kb/s
  105. Count of elements                        : 2234
  106. Stream size                              : 18.9 MiB (0%)
  107. Title                                    : 繁中
  108. Language                                 : Chinese
  109. Default                                  : No
  110. Forced                                   : No
  111. Menu
  112. 00:00:00.000                             : en:Chapter 01 / en:第 01 章
  113. 00:05:38.296                             : en:Chapter 02
  114. 00:09:04.919                             : en:Chapter 03
  115. 00:15:26.759                             : en:Chapter 04
  116. 00:18:42.704                             : en:Chapter 05
  117. 00:21:43.635                             : en:Chapter 06
  118. 00:28:37.382                             : en:Chapter 07
  119. 00:34:42.622                             : en:Chapter 08
  120. 00:41:17.057                             : en:Chapter 09
  121. 00:47:55.622                             : en:Chapter 10
  122. 00:51:14.529                             : en:Chapter 11
  123. 00:56:58.456                             : en:Chapter 12
  124. 01:01:34.565                             : en:Chapter 13
  125. 01:05:22.168                             : en:Chapter 14
  126. 01:09:10.938                             : en:Chapter 15
  127. 01:16:13.193                             : en:Chapter 16
  128. 01:20:17.103                             : en:Chapter 17
  129. 01:25:41.928                             : en:Chapter 18
  130. 01:31:45.249                             : en:Chapter 19
  131. 01:33:57.632                             : en:Chapter 20





此处一般会放置磁力链或种子下载链接,不过此链接需要注册会员才能看到,点击“立即注册”
磁力链下载【下载链接仅对注册会员开放,登陆后可见】
BT9527电影天堂 1、BT9527电影天堂提供的BT文件均来源于互联网抓取,只供网友学习交流、技术提升使用。
2、我们遵守BitTorrent点对点协议原则,任何版权问题请联系原资源发布商,我们不处理任何版权纠纷,谢谢!如有争议请联系邮箱:BT9527#hotmail.com(#换成@)
3、如果您发现某页面或地址有错误,请联系站长邮箱BT9527#hotmail.com(#换成@),我们会尽快处理。您的热心是对BT9527电影天堂最大的支持。
4、本站建议去正规影院观看电影以支持电影行业发展。
最新回复 (0)

你可以在 登录 or 注册 后,对此帖发表评论!

返回