亡命救护车[简繁英字幕].Ambulance.2022.UHD.BluRay.2160p.TrueHD.Atmos.7.1.x265.10bit.HDR-ALT 15.61GB

版主小s 5月前 235

✔资源类型:BD-4K   ✔电影年份:2022   ✔电影地区:欧美   ✔电影分类:动作

◎译  名 亡命救护车 / 救护车 / 劫命救护(台) / 十字冲锋车(港)
◎片  名 Ambulance
◎年  代 2022
◎产  地 美国
◎类  别 动作 / 犯罪
◎语  言 英语
◎上映日期 2022-04-22(中国大陆) / 2022-04-08(美国)
◎IMDb链接 https://www.imdb.com/title/tt4998632/
◎豆瓣评分 5.6/10 (22208人评价)
◎豆瓣链接 https://movie.douban.com/subject/35250237/
◎片  长 136分钟
◎导  演 迈克尔·贝 Michael Bay (id:1027776)
◎编  剧 克里斯·费达克 Chris Fedak (id:1319798)
       劳里茨·茫奇-彼得森 Laurits Munch-Petersen (id:1126201)
       拉斯·安德烈亚斯·佩德森 Lars Andreas Pedersen (id:1010432)
◎演  员 杰克·吉伦哈尔 Jake Gyllenhaal (id:1048002)
       叶海亚·阿卜杜勒-迈丁 Yahya Abdul-Mateen II (id:1374708)
       艾莎·冈萨雷斯 Eiza González (id:1233270)
       加瑞特·迪拉胡特 Garret Dillahunt (id:1036365)
       基尔·奥唐纳 Keir O'Donnell (id:1040575)
       杰克逊·怀特 Jackson White (id:1425585)
       奥利维亚·斯坦布利亚 Olivia Stambouliah (id:1256030)
       摩西·英格拉姆 Moses Ingram (id:1446415)
       科林·伍德尔 Colin Woodell (id:1340880)
       塞德里克·桑德斯 Cedric Sanders (id:1240253)
       A·马丁内斯 A Martinez (id:1125486)
       杰西·加西亚 Jesse Garcia (id:1339720)
       何塞·巴勃罗·坎蒂略 Jose Pablo Cantillo (id:1000476)
       威尔 Wale (id:1253455)
       德文·隆恩 Devan Long (id:1413539)
       维克多·高佳卡 Victor Gojcaj (id:1226282)
       杰米·麦克布莱德 Jamie McBride (id:1000740)
       珍·普罗斯克 Jenn Proske (id:1315966)
       凯利·陈 Kayli Tran (id:1423781)
       布兰登·罗宾逊 Brendan Robinson (id:1316961)
       安娜贝勒·格维奇 Annabelle Gurwitch (id:1041271)
       刘慈慈 Cici Lau (id:1438404)
       切尔西哈里斯 Chelsea Harris (id:1222987)
       安迪·费儒 Andy Favreau (id:1390048)
       艾恩 Ayne (id:1450293)
       加里·西弗斯  (id:1472214)

◎简  介
  本片翻拍自2005年同名丹麦电影,功勋退伍士兵威尔·夏普(叶海亚·阿卜杜勒-迈丁 饰)为救妻子情急之下找到养兄弟丹尼(杰克·吉伦哈尔 饰)求助,却因此被卷入洛杉矶史上最大金额银行抢劫案。在脱身中出现的致命差池,迫使二人挟持了一辆载有一名垂危警察和一位顶尖急救专家卡姆·汤普森(艾莎·冈萨雷斯 饰)的救护车。在这场持久的高速追逐中,威尔和丹尼极力躲避全城警察的大规模搜捕、保证人质的生命安全、努力不对兄弟拔刀相向,同时完成这场洛杉矶有史以来最疯狂且惊险刺激的逃脱。
  1. ##### MediaInfo ######
  2. General
  3. Unique ID                                : 18872563234484410540295945277211663874 (0xE32B935126A9060F7C446D03857DE02)
  4. Complete name                            : Ambulance.2022.UHD.BluRay.2160p.TrueHD.Atmos.7.1.x265.10bit.HDR-ALT.mkv
  5. Format                                   : Matroska
  6. Format version                           : Version 4
  7. File size                                : 15.6 GiB
  8. Duration                                 : 2 h 16 min
  9. Overall bit rate mode                    : Variable
  10. Overall bit rate                         : 16.4 Mb/s
  11. Encoded date                             : UTC 2022-06-20 06:57:31
  12. Writing application                      : mkvmerge v49.0.0 ('Sick Of Losing Soulmates') 64-bit
  13. Writing library                          : libebml v1.4.0 + libmatroska v1.6.1
  14. Video
  15. ID                                       : 1
  16. Format                                   : HEVC
  17. Format/Info                              : High Efficiency Video Coding
  18. Format profile                           : Main 10@L5.1@High
  19. HDR format                               : SMPTE ST 2086, HDR10 compatible
  20. Codec ID                                 : V_MPEGH/ISO/HEVC
  21. Duration                                 : 2 h 16 min
  22. Bit rate                                 : 12.4 Mb/s
  23. Width                                    : 3 840 pixels
  24. Height                                   : 1 608 pixels
  25. Display aspect ratio                     : 2.40:1
  26. Frame rate mode                          : Constant
  27. Frame rate                               : 23.976 (24000/1001/53354) FPS
  28. Color space                              : YUV
  29. Chroma subsampling                       : 4:2:0 (Type 2)
  30. Bit depth                                : 10 bits
  31. Bits/(Pixel*Frame)                       : 0.084
  32. Stream size                              : 11.8 GiB (76%)
  33. Title                                    : HEVC, x265Main10@L5.1@High, 24/1.001 fps @ 12395 kbps
  34. Writing library                          : x265 3.5+36-1f2c8da77:[Windows][GCC 11.2.0][64 bit] 10bit
  35. Encoding settings                        : cpuid=533541111039 / frame-threads=4 / numa-pools=16 / wpp / no-pmode / no-pme / no-psnr / no-ssim / log-level=2 / input-csp=1 / input-res=3840x1608 / interlace=0 / total-frames=196128 / level-idc=51 / high-tier=1 / uhd-bd=0 / ref=4 / no-allow-non-conformance / repeat-headers / annexb / no-aud / no-eob / no-eos / hrd / info / hash=0 / no-temporal-layers / no-open-gop / min-keyint=24 / keyint=240 / gop-lookahead=0 / bframes=8 / b-adapt=2 / b-pyramid / bframe-bias=0 / rc-lookahead=25 / lookahead-slices=0 / NTMzNTQ=uuDQuD2mJt9fsCf / scenecut=40 / no-hist-scenecut / radl=0 / no-splice / no-intra-refresh / ctu=64 / min-cu-size=8 / no-rect / no-amp / max-tu-size=32 / tu-inter-depth=3 / tu-intra-depth=3 / limit-tu=4 / rdoq-level=2 / dynamic-rd=0.00 / no-ssim-rd / signhide / no-tskip / nr-intra=0 / nr-inter=0 / no-constrained-intra / no-strong-intra-smoothing / max-merge=4 / limit-refs=1 / limit-modes / me=3 / subme=4 / merange=57 / temporal-mvp / no-frame-dup / no-hme / weightp / weightb / no-analyze-src-pics / deblock=-3:-3 / no-sao / no-sao-non-deblock / rd=6 / selective-sao=0 / no-early-skip / rskip / no-fast-intra / no-tskip-fast / no-cu-lossless / b-intra / no-splitrd-skip / rdpenalty=0 / psy-rd=2.00 / psy-rdoq=1.00 / no-rd-refine / no-lossless / cbqpoffs=-2 / crqpoffs=-2 / rc=crf / crf=18.5 / qcomp=0.65 / qpstep=4 / stats-write=0 / stats-read=0 / vbv-maxrate=160000 / vbv-bufsize=160000 / vbv-init=0.9 / min-vbv-fullness=50.0 / max-vbv-fullness=80.0 / crf-max=0.0 / crf-min=0.0 / ipratio=1.30 / pbratio=1.20 / aq-mode=3 / aq-strength=0.85 / cutree / zone-count=0 / no-strict-cbr / qg-size=32 / no-rc-grain / qpmax=69 / qpmin=0 / no-const-vbv / sar=1 / overscan=0 / videoformat=5 / range=0 / colorprim=9 / transfer=16 / colormatrix=9 / chromaloc=1 / chromaloc-top=2 / chromaloc-bottom=2 / display-window=0 / master-display=G(13250,34500)B(7500,3000)R(34000,16000)WP(15635,16450)L(10000000,1) / cll=1000,410 / min-luma=0 / max-luma=1023 / log2-max-poc-lsb=8 / vui-timing-info / vui-hrd-info / slices=1 / no-opt-qp-pps / no-opt-ref-list-length-pps / no-multi-pass-opt-rps / scenecut-bias=0.05 / hist-threshold=0.03 / no-opt-cu-delta-qp / no-aq-motion / hdr10 / hdr10-opt / no-dhdr10-opt / no-idr-recovery-sei / analysis-reuse-level=0 / analysis-save-reuse-level=0 / analysis-load-reuse-level=0 / scale-factor=0 / refine-intra=0 / refine-inter=0 / refine-mv=1 / refine-ctu-distortion=0 / no-limit-sao / ctu-info=0 / no-lowpass-dct / refine-analysis-type=0 / copy-pic=1 / max-ausize-factor=1.0 / no-dynamic-refine / no-single-sei / no-hevc-aq / no-svt / no-field / qp-adaptation-range=1.00 / scenecut-aware-qp=0conformance-window-offsets / right=0 / bottom=0 / NTMzNTQ= / decoder-max-rate=0 / no-vbv-live-multi-pass
  36. Language                                 : English
  37. Default                                  : Yes
  38. Forced                                   : No
  39. Color range                              : Limited
  40. Color primaries                          : BT.2020
  41. Transfer characteristics                 : PQ
  42. Matrix coefficients                      : BT.2020 non-constant
  43. Mastering display color primaries        : Display P3
  44. Mastering display luminance              : min: 0.0001 cd/m2, max: 1000 cd/m2
  45. Maximum Content Light Level              : 1000 cd/m2
  46. Maximum Frame-Average Light Level        : 410 cd/m2
  47. Audio #1
  48. ID                                       : 2
  49. Format                                   : MLP FBA 16-ch
  50. Format/Info                              : Meridian Lossless Packing FBA with 16-channel presentation
  51. Commercial name                          : Dolby TrueHD with Dolby Atmos
  52. Codec ID                                 : A_TRUEHD
  53. Duration                                 : 2 h 16 min
  54. Bit rate mode                            : Variable
  55. Bit rate                                 : 3 147 kb/s
  56. Maximum bit rate                         : 5 253 kb/s
  57. Channel(s)                               : 8 channels
  58. Channel layout                           : L R C LFE Ls Rs Lb Rb
  59. Sampling rate                            : 48.0 kHz
  60. Frame rate                               : 1 200.000 FPS (40 SPF)
  61. Compression mode                         : Lossless
  62. Stream size                              : 3.00 GiB (19%)
  63. Title                                    : English Dolby TrueHD 7.1 (Atmos) @ 3595 kbps
  64. Language                                 : English
  65. Default                                  : Yes
  66. Forced                                   : No
  67. Number of dynamic objects                : 11
  68. Bed channel count                        : 1 channel
  69. Bed channel configuration                : LFE
  70. Audio #2
  71. ID                                       : 3
  72. Format                                   : AC-3
  73. Format/Info                              : Audio Coding 3
  74. Commercial name                          : Dolby Digital
  75. Codec ID                                 : A_AC3
  76. Duration                                 : 2 h 16 min
  77. Bit rate mode                            : Constant
  78. Bit rate                                 : 448 kb/s
  79. Channel(s)                               : 6 channels
  80. Channel layout                           : L R C LFE Ls Rs
  81. Sampling rate                            : 48.0 kHz
  82. Frame rate                               : 31.250 FPS (1536 SPF)
  83. Compression mode                         : Lossy
  84. Stream size                              : 437 MiB (3%)
  85. Title                                    : English Dolby 5.1-EX 5.1 @ 640 kbps
  86. Language                                 : English
  87. Service kind                             : Complete Main
  88. Default                                  : No
  89. Forced                                   : No
  90. Text #1
  91. ID                                       : 4
  92. Format                                   : PGS
  93. Codec ID                                 : S_HDMV/PGS
  94. Codec ID/Info                            : Picture based subtitle format used on BDs/HD-DVDs
  95. Duration                                 : 2 h 11 min
  96. Bit rate                                 : 61.5 kb/s
  97. Count of elements                        : 5000
  98. Stream size                              : 58.0 MiB (0%)
  99. Title                                    : Eng/SUP
  100. Language                                 : English
  101. Default                                  : No
  102. Forced                                   : No
  103. Text #2
  104. ID                                       : 5
  105. Format                                   : PGS
  106. Codec ID                                 : S_HDMV/PGS
  107. Codec ID/Info                            : Picture based subtitle format used on BDs/HD-DVDs
  108. Duration                                 : 2 h 13 min
  109. Bit rate                                 : 41.9 kb/s
  110. Count of elements                        : 4754
  111. Stream size                              : 40.1 MiB (0%)
  112. Title                                    : Chs/SUP  简体
  113. Language                                 : Chinese
  114. Default                                  : Yes
  115. Forced                                   : No
  116. Text #3
  117. ID                                       : 6
  118. Format                                   : PGS
  119. Codec ID                                 : S_HDMV/PGS
  120. Codec ID/Info                            : Picture based subtitle format used on BDs/HD-DVDs
  121. Duration                                 : 2 h 13 min
  122. Bit rate                                 : 43.6 kb/s
  123. Count of elements                        : 4754
  124. Stream size                              : 41.7 MiB (0%)
  125. Title                                    : Cht/SUP  繁体
  126. Language                                 : Chinese
  127. Default                                  : No
  128. Forced                                   : No
  129. Text #4
  130. ID                                       : 7
  131. Format                                   : PGS
  132. Codec ID                                 : S_HDMV/PGS
  133. Codec ID/Info                            : Picture based subtitle format used on BDs/HD-DVDs
  134. Duration                                 : 2 h 11 min
  135. Bit rate                                 : 93.6 kb/s
  136. Count of elements                        : 5167
  137. Stream size                              : 88.3 MiB (1%)
  138. Title                                    : Chs/SUP  简英双语
  139. Language                                 : Chinese
  140. Default                                  : No
  141. Forced                                   : No
  142. Text #5
  143. ID                                       : 8
  144. Format                                   : PGS
  145. Codec ID                                 : S_HDMV/PGS
  146. Codec ID/Info                            : Picture based subtitle format used on BDs/HD-DVDs
  147. Duration                                 : 2 h 11 min
  148. Bit rate                                 : 94.8 kb/s
  149. Count of elements                        : 5167
  150. Stream size                              : 89.4 MiB (1%)
  151. Title                                    : Cht/SUP  繁英双语
  152. Language                                 : Chinese
  153. Default                                  : No
  154. Forced                                   : No
  155. Menu
  156. 00:00:00.000                             : en:绗?01 绔?
  157. 00:07:57.267                             : en:绗?02 绔?
  158. 00:15:41.941                             : en:绗?03 绔?
  159. 00:22:57.541                             : en:绗?04 绔?
  160. 00:29:59.631                             : en:绗?05 绔?
  161. 00:37:01.802                             : en:绗?06 绔?
  162. 00:43:27.646                             : en:绗?07 绔?
  163. 00:49:34.554                             : en:绗?08 绔?
  164. 00:56:07.655                             : en:绗?09 绔?
  165. 01:02:35.168                             : en:绗?10 绔?
  166. 01:07:09.025                             : en:绗?11 绔?
  167. 01:12:45.069                             : en:绗?12 绔?
  168. 01:21:00.604                             : en:绗?13 绔?
  169. 01:31:12.716                             : en:绗?14 绔?
  170. 01:40:04.206                             : en:绗?15 绔?
  171. 01:49:48.372                             : en:绗?16 绔?
  172. 01:56:06.250                             : en:绗?17 绔?
  173. 02:00:46.029                             : en:绗?18 绔?
  174. 02:06:52.520                             : en:绗?19 绔?
  175. 02:13:47.853                             : en:绗?20 绔?





此处一般会放置磁力链或种子下载链接,不过此链接需要注册会员才能看到,点击“立即注册”
磁力链下载【下载链接仅对注册会员开放,登陆后可见】
BT9527电影天堂 1、BT9527电影天堂提供的BT文件均来源于互联网抓取,只供网友学习交流、技术提升使用。
2、我们遵守BitTorrent点对点协议原则,任何版权问题请联系原资源发布商,我们不处理任何版权纠纷,谢谢!如有争议请联系邮箱:BT9527#hotmail.com(#换成@)
3、如果您发现某页面或地址有错误,请联系站长邮箱BT9527#hotmail.com(#换成@),我们会尽快处理。您的热心是对BT9527电影天堂最大的支持。
4、本站建议去正规影院观看电影以支持电影行业发展。
最新回复 (0)

你可以在 登录 or 注册 后,对此帖发表评论!

返回
发新帖