再造战士[国英多音轨/繁英字幕].Universal.Soldier.1992.BluRay.1080p.x265.10bit.2Audio-MiniHD 6.06GB

版主小s 5月前 232

✔资源类型:暂未分类   ✔电影年份:更 早   ✔电影地区:欧美   ✔电影分类:剧情

◎译  名 再造战士 / 魔鬼命令(台) / 宇宙战士
◎片  名 Universal Soldier
◎年  代 1992
◎产  地 美国
◎类  别 剧情 / 动作 / 科幻
◎语  言 英语
◎上映日期 1992-07-10
◎IMDb链接 https://www.imdb.com/title/tt0105698/
◎豆瓣评分 6.7/10 (4321人评价)
◎豆瓣链接 https://movie.douban.com/subject/1298717/
◎片  长 102 分钟
◎导  演 罗兰·艾默里奇 Roland Emmerich (id:1040593)
◎编  剧 迪安·德夫林 Dean Devlin (id:1050031)
◎演  员 杜夫·龙格尔 Dolph Lundgren (id:1040508)
       尚格·云顿 Jean-Claude Van Damme (id:1027149)
       艾利·沃克 Ally Walker (id:1049740)
       Eddie Braun Eddie Braun (id:1279220)
       德鲁斯奈德 Drew Snyder (id:1152588)
       Walter Robles Walter Robles (id:1148466)
       莱昂·里皮 Leon Rippy (id:1144752)
       史蒂芬·沃尔夫·史密斯 Stephen Wolfe Smith (id:1159353)
       Al Wyatt Jr. Al Wyatt Jr. (id:1301341)
       乔安娜·巴隆 Joanne Baron (id:1277946)
       阿兰·格拉夫 Allan Graf (id:1285262)
       Joseph Malone Joseph Malone (id:1290821)
       Billy D. Lucas Billy D. Lucas (id:1290412)
       坦纳·吉尔 Tanner Gill (id:1284869)
       小托马斯·罗萨莱斯 Thomas Rosales Jr. (id:1143150)
       西蒙·瑞 Simon Rhee (id:1143089)
       兰斯·霍华德 Rance Howard (id:1054335)
       耐德·巴拉米 Ned Bellamy (id:1048233)
       Eric Norris Eric Norris (id:1045280)
       迈克尔·加·怀特 Michael Jai White (id:1040509)
       Robert Trebor Robert Trebor (id:1018428)
       拉尔夫·莫勒 Ralf Moeller (id:1013977)
       汤米·利斯特 Tom Lister Jr. (id:1055750)
       乔尔·克莱默 Joel Kramer (id:1055932)
       埃德·欧罗斯 Ed O'Ross (id:1133241)
       露贝·安缇维洛 Lupe Ontiveros (id:1127091)
       Leilani Jones Leilani Jones (id:1103925)
       利利安·查维 Lilyan Chauvin (id:1069124)
       乔治·费舍尔 George Fisher (id:1083425)
       Shane Dixon Shane Dixon (id:1081828)
       约翰·德米塔 John DeMita (id:1081536)
       Jophery C. Brown Jophery C. Brown (id:1076926)
       杰里·奥尔巴赫 Jerry Orbach (id:1056096)
       Michael Burnett Michael Burnett (id:1008305)
       马里奥·凯萨 Mario Kassar (id:1028144)
       Craig Baumgarten Craig Baumgarten (id:1278107)
       Christopher Franke Christopher Franke (id:1002962)
       卡尔·沃尔特·林登 Karl Walter Lindenlaub (id:1018702)
       Penny Perry Penny Perry (id:1294339)
       Annette Benson Annette Benson (id:1278372)
       尼尔森·寇茨 Nelson Coates (id:1280927)
       Joseph A. Porro Joseph A. Porro (id:1294749)
       Larry Hamlin Larry Hamlin (id:1285916)
       佐尔坦·埃雷克 Zoltan Elek (id:1283102)
       N. Kristine Chadwick N. Kristine Chadwick (id:1280376)
       格雷迪·霍德尔 Grady Holder (id:1094670)
       沙里·佩里 Shari Perry (id:1294328)
       杰克·加伯 Jake Garber (id:1098012)
       Michael Burnett Michael Burnett (id:1008305)
       Jackie Dobbie Jackie Dobbie (id:1080717)
       Janice Alexander Janice Alexander (id:1276985)
       维克·阿姆斯特朗 Vic Armstrong (id:1027958)
       福尔克·恩格尔 Volker Engel (id:1005597)

◎简  介
  越战后,美国政府进行了一项绝密的科学计划。科学家们将越战中牺牲的士兵的尸体冰冻起来,植入电脑芯片,输入战争程序,讲他们改造成为新一代的战争机器人――“宇宙战士”,这些机器人没有情感和以前的记忆,只有冰冷的杀戮武器。士兵卢克(尚格?云顿 Jean-Claude Van Damme 饰)和班长安德鲁(杜夫?朗格 Dolph Lundgren 饰)就是其中两员,他们被派往参加一场新的战争。战争中,两人的芯片突然出错,令两人都恢复了以前的记忆。                                    
                                卢克记起越战当年正是安德鲁突然性情大变将属下和俘虏都杀光,误闯美军基地的女记者罗伯斯(艾丽?沃克 Ally Walker 饰)意外获悉了美军这一秘密。本来罗伯斯难逃一死,关键时刻卢克救走了她。于是,美军派出所有的宇宙战士开始追杀二人。
  1. ##### MediaInfo ######
  2. General
  3. Unique ID                                : 309341059402131421106204099922266689348 (0xE8B8EBC2459996FFA78FDD7324EC0F44)
  4. Complete name                            : Universal.Soldier.1992.BluRay.1080p.x265.10bit.2Audio-MiniHD.mkv
  5. Format                                   : Matroska
  6. Format version                           : Version 4
  7. File size                                : 6.06 GiB
  8. Duration                                 : 1 h 43 min
  9. Overall bit rate                         : 8 366 kb/s
  10. Encoded date                             : UTC 2018-03-07 10:29:08
  11. Writing application                      : mkvmerge v20.0.0 ('I Am The Sun') 64-bit
  12. Writing library                          : libebml v1.3.5 + libmatroska v1.4.8
  13. Video
  14. ID                                       : 1
  15. Format                                   : HEVC
  16. Format/Info                              : High Efficiency Video Coding
  17. Format profile                           : Main 10@L4@Main
  18. Codec ID                                 : V_MPEGH/ISO/HEVC
  19. Duration                                 : 1 h 43 min
  20. Bit rate                                 : 7 367 kb/s
  21. Width                                    : 1 920 pixels
  22. Height                                   : 818 pixels
  23. Display aspect ratio                     : 2.35:1
  24. Frame rate mode                          : Constant
  25. Frame rate                               : 23.976 (24000/1001/53354) FPS
  26. Color space                              : YUV
  27. Chroma subsampling                       : 4:2:0
  28. Bit depth                                : 10 bits
  29. Bits/(Pixel*Frame)                       : 0.196
  30. Stream size                              : 5.34 GiB (88%)
  31. Writing library                          : x265 2.7+1-2aa737a99f51:[Windows][GCC 7.3.0][64 bit] 10bit
  32. Encoding settings                        : cpuid=533541173503 / frame-threads=3 / numa-pools=8 / wpp / no-pmode / no-pme / no-psnr / no-ssim / log-level=2 / csv / csv-log-level=0 / input-csp=1 / input-res=1920x818 / interlace=0 / total-frames=149240 / level-idc=0 / high-tier=1 / uhd-bd=0 / ref=5 / no-allow-non-conformance / no-repeat-headers / annexb / no-aud / no-hrd / info / hash=0 / no-temporal-layers / no-open-gop / min-keyint=1 / keyint=360 / gop-lookahead=0 / bframes=9 / b-adapt=2 / b-pyramid / bframe-bias=0 / rc-lookahead=60 / lookahead-slices=4 / NTMzNTQ=uuDQuD2mJt9fsCf / scenecut=40 / radl=0 / no-intra-refresh / ctu=32 / min-cu-size=8 / rect / no-amp / max-tu-size=16 / tu-inter-depth=2 / tu-intra-depth=2 / limit-tu=4 / rdoq-level=1 / dynamic-rd=0.00 / ssim-rd / signhide / no-tskip / nr-intra=0 / nr-inter=0 / no-constrained-intra / no-strong-intra-smoothing / max-merge=3 / limit-refs=2 / limit-modes / me=3 / subme=5 / merange=25 / temporal-mvp / weightp / weightb / no-analyze-src-pics / deblock=-1:-1 / no-sao / no-sao-non-deblock / rd=4 / no-early-skip / rskip / no-fast-intra / no-tskip-fast / no-cu-lossless / b-intra / no-splitrd-skip / rdpenalty=1 / psy-rd=0.00 / psy-rdoq=5.00 / no-rd-refine / no-lossless / cbqpoffs=-2 / crqpoffs=-2 / rc=crf / crf=19.0 / qcomp=0.70 / qpstep=4 / stats-write=0 / stats-read=0 / ipratio=1.40 / pbratio=1.30 / aq-mode=2 / aq-strength=0.80 / cutree / zone-count=0 / no-strict-cbr / qg-size=16 / no-rc-grain / qpmax=69 / qpmin=0 / no-const-vbv / sar=0 / overscan=0 / videoformat=5 / range=0 / colorprim=1 / transfer=2 / colormatrix=2 / chromaloc=0 / display-window=0 / max-cll=0,0 / min-luma=0 / max-luma=1023 / log2-max-poc-lsb=8 / vui-timing-info / vui-hrd-info / slices=1 / no-opt-qp-pps / no-opt-ref-list-length-pps / no-multi-pass-opt-rps / scenecut-bias=0.05 / no-opt-cu-delta-qp / no-aq-motion / no-hdr / no-hdr-opt / no-dhdr10-opt / analysis-reuse-level=5 / scale-factor=0 / refine-intra=0 / refine-inter=0 / refine-mv=0 / no-limit-sao / ctu-info=0 / no-lowpass-dct / refine-mv-type=0 / copy-pic=1
  33. Language                                 : Chinese
  34. Default                                  : Yes
  35. Forced                                   : No
  36. Color range                              : Limited
  37. Color primaries                          : BT.709
  38. Audio #1
  39. ID                                       : 2
  40. Format                                   : AC-3
  41. Format/Info                              : Audio Coding 3
  42. Commercial name                          : Dolby Digital
  43. Codec ID                                 : A_AC3
  44. Duration                                 : 1 h 43 min
  45. Bit rate mode                            : Constant
  46. Bit rate                                 : 192 kb/s
  47. Channel(s)                               : 2 channels
  48. Channel layout                           : L R
  49. Sampling rate                            : 48.0 kHz
  50. Frame rate                               : 31.250 FPS (1536 SPF)
  51. Compression mode                         : Lossy
  52. Stream size                              : 142 MiB (2%)
  53. Title                                    : 国语
  54. Language                                 : Chinese
  55. Service kind                             : Complete Main
  56. Default                                  : Yes
  57. Forced                                   : No
  58. Audio #2
  59. ID                                       : 3
  60. Format                                   : AC-3
  61. Format/Info                              : Audio Coding 3
  62. Commercial name                          : Dolby Digital
  63. Codec ID                                 : A_AC3
  64. Duration                                 : 1 h 43 min
  65. Bit rate mode                            : Constant
  66. Bit rate                                 : 640 kb/s
  67. Channel(s)                               : 6 channels
  68. Channel layout                           : L R C LFE Ls Rs
  69. Sampling rate                            : 48.0 kHz
  70. Frame rate                               : 31.250 FPS (1536 SPF)
  71. Compression mode                         : Lossy
  72. Stream size                              : 475 MiB (8%)
  73. Title                                    : 英语
  74. Language                                 : English
  75. Service kind                             : Complete Main
  76. Default                                  : No
  77. Forced                                   : No
  78. Text #1
  79. ID                                       : 4
  80. Format                                   : PGS
  81. Muxing mode                              : zlib
  82. Codec ID                                 : S_HDMV/PGS
  83. Codec ID/Info                            : Picture based subtitle format used on BDs/HD-DVDs
  84. Title                                    : 繁体
  85. Language                                 : Chinese
  86. Default                                  : Yes
  87. Forced                                   : No
  88. Text #2
  89. ID                                       : 5
  90. Format                                   : PGS
  91. Muxing mode                              : zlib
  92. Codec ID                                 : S_HDMV/PGS
  93. Codec ID/Info                            : Picture based subtitle format used on BDs/HD-DVDs
  94. Title                                    : 英文
  95. Language                                 : English
  96. Default                                  : No
  97. Forced                                   : No
  98. Menu
  99. 00:00:00.000                             : en:Chapter 01
  100. 00:07:18.354                             : en:Chapter 02
  101. 00:15:22.880                             : en:Chapter 03
  102. 00:24:56.745                             : en:Chapter 04
  103. 00:32:40.667                             : en:Chapter 05
  104. 00:42:20.454                             : en:Chapter 06
  105. 00:52:57.048                             : en:Chapter 07
  106. 01:01:22.720                             : en:Chapter 08
  107. 01:08:24.809                             : en:Chapter 09
  108. 01:16:19.241                             : en:Chapter 10
  109. 01:25:45.849                             : en:Chapter 11
  110. 01:31:52.924                             : en:Chapter 12





此处一般会放置磁力链或种子下载链接,不过此链接需要注册会员才能看到,点击“立即注册”
磁力链下载【下载链接仅对注册会员开放,登陆后可见】
BT9527电影天堂 1、BT9527电影天堂提供的BT文件均来源于互联网抓取,只供网友学习交流、技术提升使用。
2、我们遵守BitTorrent点对点协议原则,任何版权问题请联系原资源发布商,我们不处理任何版权纠纷,谢谢!如有争议请联系邮箱:BT9527#hotmail.com(#换成@)
3、如果您发现某页面或地址有错误,请联系站长邮箱BT9527#hotmail.com(#换成@),我们会尽快处理。您的热心是对BT9527电影天堂最大的支持。
4、本站建议去正规影院观看电影以支持电影行业发展。
最新回复 (2)
  • wbgaini 5月前
    2
    这个我喜欢,谢谢
  • fury16 5月前
    3
    小时候看的电影  很经典!

你可以在 登录 or 注册 后,对此帖发表评论!

返回
发新帖