再造战士3:重生[国英多音轨/简繁英字幕].Universal.Soldiers.Regeneration.2009.BluRay.1080p.x265.10bit.2Audio-MiniHD 2.75GB

版主小s 5月前 194

✔资源类型:暂未分类   ✔电影年份:2009   ✔电影地区:欧美   ✔电影分类:剧情

◎译  名 再造战士3:重生 / Universal Soldier III: A New Beginning
◎片  名 Universal Soldier: Regeneration
◎年  代 2009
◎产  地 美国
◎类  别 剧情 / 动作 / 科幻 / 惊悚
◎语  言 英语 / 保加利亚语
◎上映日期 2009-10-01(美国)
◎IMDb链接 https://www.imdb.com/title/tt1288403/
◎豆瓣评分 5.3/10 (2923人评价)
◎豆瓣链接 https://movie.douban.com/subject/3217172/
◎片  长 97 分钟
◎导  演  Galina Kyuchukova (id:1261925)
◎编  剧 迪安·德夫林 Dean Devlin (id:1050031)
◎演  员 尚格·云顿 Jean-Claude Van Damme (id:1027149)
       杜夫·龙格尔 Dolph Lundgren (id:1040508)
       安德烈·阿罗维斯基 Andrei Arlovski (id:1005027)
       克里·约翰逊 Corey Johnson (id:1045054)
       扎哈利·巴哈罗夫 Zachary Baharov (id:1331351)
       阿基·阿维尼 Aki Avni (id:1056217)
       凯瑞·莎勒 Kerry Shale (id:1322372)
        John Laskowski (id:1247148)
       克里斯·云顿 Kris Van Damme (id:1331350)
       雪莉瓦洛德 Shelly Varod (id:1323342)
       约翰·芬 Jon Foo (id:1040610)
       丹柯·约尔丹诺夫 Danko Jordanov (id:1190569)
       史蒂芬·常 Stephen Chang (id:1355408)
       迪米特尔·多切诺夫 Dimiter Doichinov (id:1338449)
       马克·达蒙 Mark Damon (id:1048289)
       科特尼·所罗门 Courtney Solomon (id:1054159)
       Craig Baumgarten Craig Baumgarten (id:1278107)
       James Portolese James Portolese (id:1019774)
       彼得·海姆斯 Peter Hyams (id:1025315)
       菲利普·哈里森 Philip Harrison (id:1286141)

◎简  介
  20世纪60年代,美国的势力向亚洲渗透,为此政府实行的一项绝密计划——战士再造计划,通过药物注射等手段将士兵大造成冷血无情、实力强悍的超级战士。随着技术不断改进,在罗伯特·柯林博士的主持下又开启了白塔计划,成功打造出更为完美的第二代超级战士。然而一次意外后12名二代战士逃亡,而涉嫌叛国的柯林博士也被驱逐东欧。此后不久,再造战士占领切尔诺贝利,美国军方决定派出4名尚存的一代战士前去击垮那群危险怪物,但是他们全部遭到无情屠戮。                                    
                                走投无路之际,军方只能派出第五名一代战士卢克·戴沃洛克斯(尚格·云顿 Jean-Claude Van Damme 饰)出马,对抗强大的对手安德鲁·斯科特(杜夫·龙格尔 Dolph Lundgren 饰)……
  1. ##### MediaInfo ######
  2. General
  3. Unique ID                                : 56609760835711839223004542813157158881 (0x2A96A4B2D5D483D946DBEA0069FF6FE1)
  4. Complete name                            : Universal.Soldiers.Regeneration.2009.BluRay.1080p.x265.10bit.2Audio-MiniHD.mkv
  5. Format                                   : Matroska
  6. Format version                           : Version 4
  7. File size                                : 2.75 GiB
  8. Duration                                 : 1 h 36 min
  9. Overall bit rate                         : 4 058 kb/s
  10. Encoded date                             : UTC 2018-03-07 19:01:56
  11. Writing application                      : mkvmerge v20.0.0 ('I Am The Sun') 64-bit
  12. Writing library                          : libebml v1.3.5 + libmatroska v1.4.8
  13. Video
  14. ID                                       : 1
  15. Format                                   : HEVC
  16. Format/Info                              : High Efficiency Video Coding
  17. Format profile                           : Main 10@L4@Main
  18. Codec ID                                 : V_MPEGH/ISO/HEVC
  19. Duration                                 : 1 h 36 min
  20. Bit rate                                 : 3 145 kb/s
  21. Width                                    : 1 920 pixels
  22. Height                                   : 818 pixels
  23. Display aspect ratio                     : 2.35:1
  24. Frame rate mode                          : Constant
  25. Frame rate                               : 23.976 (24000/1001/53354) FPS
  26. Color space                              : YUV
  27. Chroma subsampling                       : 4:2:0
  28. Bit depth                                : 10 bits
  29. Bits/(Pixel*Frame)                       : 0.084
  30. Stream size                              : 2.13 GiB (78%)
  31. Writing library                          : x265 2.7+1-2aa737a99f51:[Windows][GCC 7.3.0][64 bit] 10bit
  32. Encoding settings                        : cpuid=533541173503 / frame-threads=3 / numa-pools=8 / wpp / no-pmode / no-pme / no-psnr / no-ssim / log-level=2 / csv / csv-log-level=0 / input-csp=1 / input-res=1920x818 / interlace=0 / total-frames=139489 / level-idc=0 / high-tier=1 / uhd-bd=0 / ref=5 / no-allow-non-conformance / no-repeat-headers / annexb / no-aud / no-hrd / info / hash=0 / no-temporal-layers / no-open-gop / min-keyint=1 / keyint=360 / gop-lookahead=0 / bframes=9 / b-adapt=2 / b-pyramid / bframe-bias=0 / rc-lookahead=60 / lookahead-slices=4 / NTMzNTQ=uuDQuD2mJt9fsCf / scenecut=40 / radl=0 / no-intra-refresh / ctu=32 / min-cu-size=8 / rect / no-amp / max-tu-size=16 / tu-inter-depth=2 / tu-intra-depth=2 / limit-tu=4 / rdoq-level=1 / dynamic-rd=0.00 / ssim-rd / signhide / no-tskip / nr-intra=0 / nr-inter=0 / no-constrained-intra / no-strong-intra-smoothing / max-merge=3 / limit-refs=2 / limit-modes / me=3 / subme=5 / merange=25 / temporal-mvp / weightp / weightb / no-analyze-src-pics / deblock=-1:-1 / no-sao / no-sao-non-deblock / rd=4 / no-early-skip / rskip / no-fast-intra / no-tskip-fast / no-cu-lossless / b-intra / no-splitrd-skip / rdpenalty=1 / psy-rd=0.00 / psy-rdoq=5.00 / no-rd-refine / no-lossless / cbqpoffs=-2 / crqpoffs=-2 / rc=crf / crf=19.0 / qcomp=0.70 / qpstep=4 / stats-write=0 / stats-read=0 / ipratio=1.40 / pbratio=1.30 / aq-mode=2 / aq-strength=0.80 / cutree / zone-count=0 / no-strict-cbr / qg-size=16 / no-rc-grain / qpmax=69 / qpmin=0 / no-const-vbv / sar=0 / overscan=0 / videoformat=5 / range=0 / colorprim=1 / transfer=2 / colormatrix=2 / chromaloc=0 / display-window=0 / max-cll=0,0 / min-luma=0 / max-luma=1023 / log2-max-poc-lsb=8 / vui-timing-info / vui-hrd-info / slices=1 / no-opt-qp-pps / no-opt-ref-list-length-pps / no-multi-pass-opt-rps / scenecut-bias=0.05 / no-opt-cu-delta-qp / no-aq-motion / no-hdr / no-hdr-opt / no-dhdr10-opt / analysis-reuse-level=5 / scale-factor=0 / refine-intra=0 / refine-inter=0 / refine-mv=0 / no-limit-sao / ctu-info=0 / no-lowpass-dct / refine-mv-type=0 / copy-pic=1
  33. Language                                 : Chinese
  34. Default                                  : Yes
  35. Forced                                   : No
  36. Color range                              : Limited
  37. Color primaries                          : BT.709
  38. Audio #1
  39. ID                                       : 2
  40. Format                                   : AC-3
  41. Format/Info                              : Audio Coding 3
  42. Commercial name                          : Dolby Digital
  43. Codec ID                                 : A_AC3
  44. Duration                                 : 1 h 36 min
  45. Bit rate mode                            : Constant
  46. Bit rate                                 : 192 kb/s
  47. Channel(s)                               : 2 channels
  48. Channel layout                           : L R
  49. Sampling rate                            : 48.0 kHz
  50. Frame rate                               : 31.250 FPS (1536 SPF)
  51. Compression mode                         : Lossy
  52. Stream size                              : 133 MiB (5%)
  53. Title                                    : 国语
  54. Language                                 : Chinese
  55. Service kind                             : Complete Main
  56. Default                                  : Yes
  57. Forced                                   : No
  58. Audio #2
  59. ID                                       : 3
  60. Format                                   : AC-3
  61. Format/Info                              : Audio Coding 3
  62. Commercial name                          : Dolby Digital
  63. Codec ID                                 : A_AC3
  64. Duration                                 : 1 h 36 min
  65. Bit rate mode                            : Constant
  66. Bit rate                                 : 640 kb/s
  67. Channel(s)                               : 6 channels
  68. Channel layout                           : L R C LFE Ls Rs
  69. Sampling rate                            : 48.0 kHz
  70. Frame rate                               : 31.250 FPS (1536 SPF)
  71. Compression mode                         : Lossy
  72. Stream size                              : 444 MiB (16%)
  73. Title                                    : 英语
  74. Language                                 : English
  75. Service kind                             : Complete Main
  76. Default                                  : No
  77. Forced                                   : No
  78. Text #1
  79. ID                                       : 4
  80. Format                                   : PGS
  81. Muxing mode                              : zlib
  82. Codec ID                                 : S_HDMV/PGS
  83. Codec ID/Info                            : Picture based subtitle format used on BDs/HD-DVDs
  84. Title                                    : 繁体
  85. Language                                 : Chinese
  86. Default                                  : Yes
  87. Forced                                   : No
  88. Text #2
  89. ID                                       : 5
  90. Format                                   : PGS
  91. Muxing mode                              : zlib
  92. Codec ID                                 : S_HDMV/PGS
  93. Codec ID/Info                            : Picture based subtitle format used on BDs/HD-DVDs
  94. Title                                    : 简体
  95. Language                                 : Chinese
  96. Default                                  : No
  97. Forced                                   : No
  98. Text #3
  99. ID                                       : 6
  100. Format                                   : PGS
  101. Muxing mode                              : zlib
  102. Codec ID                                 : S_HDMV/PGS
  103. Codec ID/Info                            : Picture based subtitle format used on BDs/HD-DVDs
  104. Title                                    : 英文
  105. Language                                 : English
  106. Default                                  : No
  107. Forced                                   : No
  108. Menu
  109. 00:00:00.000                             : en:Chapter 01
  110. 00:05:03.886                             : en:Chapter 02
  111. 00:12:34.837                             : en:Chapter 03
  112. 00:18:48.502                             : en:Chapter 04
  113. 00:24:37.559                             : en:Chapter 05
  114. 00:31:05.947                             : en:Chapter 06
  115. 00:34:31.360                             : en:Chapter 07
  116. 00:39:55.601                             : en:Chapter 08
  117. 00:47:37.104                             : en:Chapter 09
  118. 00:54:05.575                             : en:Chapter 10
  119. 01:00:07.520                             : en:Chapter 11
  120. 01:04:55.600                             : en:Chapter 12
  121. 01:12:37.227                             : en:Chapter 13
  122. 01:16:27.541                             : en:Chapter 14
  123. 01:21:51.448                             : en:Chapter 15
  124. 01:27:10.725                             : en:Chapter 16





此处一般会放置磁力链或种子下载链接,不过此链接需要注册会员才能看到,点击“立即注册”
磁力链下载【下载链接仅对注册会员开放,登陆后可见】
BT9527电影天堂 1、BT9527电影天堂提供的BT文件均来源于互联网抓取,只供网友学习交流、技术提升使用。
2、我们遵守BitTorrent点对点协议原则,任何版权问题请联系原资源发布商,我们不处理任何版权纠纷,谢谢!如有争议请联系邮箱:BT9527#hotmail.com(#换成@)
3、如果您发现某页面或地址有错误,请联系站长邮箱BT9527#hotmail.com(#换成@),我们会尽快处理。您的热心是对BT9527电影天堂最大的支持。
4、本站建议去正规影院观看电影以支持电影行业发展。
最新回复 (0)

你可以在 登录 or 注册 后,对此帖发表评论!

返回
发新帖