决胜21点[简繁英字幕].21.2008.BluRay.1080p.x265.10bit-MiniHD 5.09GB

版主小s 5月前 190

决胜21点[简繁英字幕].21.2008.BluRay.1080p.x265.10bit-MiniHD 5.09GB

◎译  名 决胜21点 / 斗智21点(港) / 玩转21点 / 攻陷拉斯维加斯 / 21 - The Movie / 21: Blackjack
◎片  名 21
◎年  代 2008
◎产  地 美国
◎类  别 剧情 / 犯罪
◎语  言 英语
◎上映日期 2008-03-28(美国)
◎IMDb链接 https://www.imdb.com/title/tt0478087/
◎豆瓣评分 6.9/10 (63652人评价)
◎豆瓣链接 https://movie.douban.com/subject/2156945/
◎片  长 123分钟
◎导  演 罗伯特·路克蒂克 Robert Luketic (id:1313319)
◎编  剧 阿兰·里布 Allan Loeb (id:1320149)
       本·麦兹里奇 Ben Mezrich (id:1005276)
◎演  员 吉姆·斯特吉斯 Jim Sturgess (id:1053559)
       凯文·史派西 Kevin Spacey (id:1054432)
       凯特·波茨沃斯 Kate Bosworth (id:1004855)
       艾伦·余 Aaron Yoo (id:1044922)
       莉萨·拉皮拉 Liza Lapira (id:1289436)
       劳伦斯·菲什伯恩 Laurence Fishburne (id:1022596)
       迈克·温特 Mike Wendt (id:1251310)
        Harley Harrison (id:1249612)
       菲尼斯·埃弗里 Finise Avery (id:1247192)
        Shaun Aponik (id:1244342)
       Ellen Becker-Gray Ellen Becker-Gray (id:1243917)
        Alexandra McDougall (id:1243322)
        Benjamin Fisher (id:1263768)
        Chad Boldini (id:1256665)
       蒂·艾萨基尔多 Ty Izquierdo (id:1260180)
       Kris Williams Kris Williams (id:1032392)
       约旦·加朗德 Jordan Galland (id:1337340)
       雅各布·皮特斯 Jacob Pitts (id:1274353)
        Katie Curley (id:1270452)
       乔什·加德 Josh Gad (id:1305235)
        John Wayland Somers (id:1242158)
       克里斯托弗·迈克尔·霍利 Christopher Michael Holley (id:1239727)
       Jeffrey J. Dashnaw Jeffrey J. Dashnaw (id:1088487)
       Ramses Del Hierro Ericstam Ramses Del Hierro Ericstam (id:1084489)
       埃里克·罗林斯 Eric Rollins (id:1080181)
       海伦·凯莉 Helen Carey (id:1073033)
       Chemi Che-Mponda Chemi Che-Mponda (id:1067920)
       费提·本迪达 Fethi Bendida (id:1015367)
       斯宾塞·加雷特 Spencer Garrett (id:1097305)
       杰克·吉尔平 Jack Gilpin (id:1101385)
        Josh Mervis (id:1236626)
        Giovanni Pantaleo (id:1234198)
       克里斯托弗·裘德 Christopher Jude (id:1228681)
        Frank Chen (id:1227718)
       亚美利哥·普雷休蒂 Americo Presciutti (id:1223745)
        Trudi Goodman (id:1220871)
       Crystal Lisbon Crystal Lisbon (id:1180826)
       Sam Golzari Sam Golzari (id:1178950)
       Henry Fleming Wood Henry Fleming Wood (id:1176844)
       特蕾莎利文斯通 Terasa Livingstone (id:1118035)
       凯文·史派西 Kevin Spacey (id:1054432)
       达纳·布努内蒂 Dana Brunetti (id:1279494)
       布莱特·拉特纳 Brett Ratner (id:1002732)
       拉塞尔·卡朋特 Russell Carpenter (id:1037231)
       埃利奥特·格雷厄姆 Elliot Graham (id:1301892)
       弗兰辛·梅思勒 Francine Maisler (id:1025402)
       卢卡·莫斯卡 Luca Mosca (id:1419362)
       Lucia Mace Lucia Mace (id:1290632)
       Sherryn Smith Sherryn Smith (id:1123679)
       塔尼亚·麦克科马斯 Tania McComas (id:1291482)
       格洛丽亚·帕斯卡·卡斯尼 Gloria Pasqua Casny (id:1294048)
       Susan Romero Susan Romero (id:1138896)
       Justin Muller Justin Muller (id:1136597)
       Larry Ewing Larry Ewing (id:1304992)
       哈里·爱森斯坦 Harry Eisenstein (id:1003667)
       Rob Meyers Rob Meyers (id:1212860)

◎简  介
  Ben Campbell(吉姆·斯特加斯 Jim Sturgess 饰)有着惊人的才华,身为麻省理工高材生的他学业无懈可击,他亦毫无意外地赢得了哈佛医学院的录取通知书。然而30万的高昂学费和生活费令他的大学梦摇摇欲坠。在争取奖学金的面试中,教授对他说胜出者必须要有过人的经历而不是像本这种一张白纸的学生。                                       
                                    Ben在一服装店打工,挣取每小时8美元的薪酬。同时和两个好友准备竞赛2.09以期获得认同和奖金。数学课上本的天才头脑被教授Mickey Rosa(凯文·史派西 Kevin Spacey  饰)发现,Mickey 希望本加入自己的21算法团队,专门去赌场依靠算牌赢得大钱。Ben并不同意,但Ben一直暗恋的女孩Jill Taylor(#凯特·波茨沃斯 Kate Bosworth 饰)也出面诱惑时,Ben开始动摇。                                       
                                    Ben开始了严密的训练,出师的成功让Be...

  1. ##### MediaInfo ######
  2. General
  3. Unique ID                                : 210915096704289692848316818844910274598 (0x9EACC521C6576AAB9EBC967E99C6C826)
  4. Complete name                            : 21.2008.BluRay.1080p.x265.10bit-MiniHD.mkv
  5. Format                                   : Matroska
  6. Format version                           : Version 4
  7. File size                                : 5.09 GiB
  8. Duration                                 : 2 h 2 min
  9. Overall bit rate                         : 5 944 kb/s
  10. Encoded date                             : UTC 2018-02-06 14:08:11
  11. Writing application                      : mkvmerge v8.5.2 ('Crosses') 32bit
  12. Writing library                          : libebml v1.3.3 + libmatroska v1.4.4
  13. Video
  14. ID                                       : 1
  15. Format                                   : HEVC
  16. Format/Info                              : High Efficiency Video Coding
  17. Format profile                           : Main 10@L4@Main
  18. Codec ID                                 : V_MPEGH/ISO/HEVC
  19. Duration                                 : 2 h 2 min
  20. Bit rate                                 : 5 246 kb/s
  21. Width                                    : 1 920 pixels
  22. Height                                   : 800 pixels
  23. Display aspect ratio                     : 2.40:1
  24. Frame rate mode                          : Constant
  25. Frame rate                               : 23.976 (24000/1001/53354) FPS
  26. Color space                              : YUV
  27. Chroma subsampling                       : 4:2:0
  28. Bit depth                                : 10 bits
  29. Bits/(Pixel*Frame)                       : 0.142
  30. Stream size                              : 4.50 GiB (88%)
  31. Writing library                          : x265 2.6+31-3712d13c09bf:[Windows][MSVC 1912][64 bit] 10bit
  32. Encoding settings                        : cpuid=533541173503 / frame-threads=2 / numa-pools=4 / wpp / no-pmode / no-pme / no-psnr / no-ssim / log-level=2 / input-csp=1 / input-res=1920x800 / interlace=0 / total-frames=176496 / level-idc=0 / high-tier=1 / uhd-bd=0 / ref=5 / no-allow-non-conformance / no-repeat-headers / annexb / no-aud / no-hrd / info / hash=0 / no-temporal-layers / no-open-gop / min-keyint=1 / keyint=360 / gop-lookahead=0 / bframes=8 / b-adapt=2 / b-pyramid / bframe-bias=0 / rc-lookahead=60 / lookahead-slices=4 / NTMzNTQ=uuDQuD2mJt9fsCf / scenecut=40 / radl=0 / no-intra-refresh / ctu=32 / min-cu-size=8 / no-rect / no-amp / max-tu-size=16 / tu-inter-depth=2 / tu-intra-depth=2 / limit-tu=4 / rdoq-level=2 / dynamic-rd=0.00 / ssim-rd / signhide / no-tskip / nr-intra=0 / nr-inter=0 / no-constrained-intra / no-strong-intra-smoothing / max-merge=3 / limit-refs=2 / limit-modes / me=3 / subme=5 / merange=25 / temporal-mvp / weightp / weightb / no-analyze-src-pics / deblock=-1:-1 / no-sao / no-sao-non-deblock / rd=4 / no-early-skip / no-rskip / no-fast-intra / no-tskip-fast / no-cu-lossless / b-intra / no-splitrd-skip / rdpenalty=1 / psy-rd=0.00 / psy-rdoq=5.00 / no-rd-refine / no-lossless / cbqpoffs=-2 / crqpoffs=-2 / rc=crf / crf=19.0 / qcomp=0.65 / qpstep=4 / stats-write=0 / stats-read=0 / ipratio=1.40 / pbratio=1.30 / aq-mode=2 / aq-strength=0.90 / cutree / zone-count=0 / no-strict-cbr / qg-size=16 / no-rc-grain / qpmax=69 / qpmin=0 / no-const-vbv / sar=1 / overscan=0 / videoformat=5 / range=0 / colorprim=1 / transfer=2 / colormatrix=2 / chromaloc=0 / display-window=0 / max-cll=0,0 / min-luma=0 / max-luma=1023 / log2-max-poc-lsb=8 / vui-timing-info / vui-hrd-info / slices=1 / no-opt-qp-pps / no-opt-ref-list-length-pps / no-multi-pass-opt-rps / scenecut-bias=0.05 / no-opt-cu-delta-qp / no-aq-motion / no-hdr / no-hdr-opt / no-dhdr10-opt / analysis-reuse-level=5 / scale-factor=0 / refine-intra=0 / refine-inter=0 / refine-mv=0 / no-limit-sao / ctu-info=0 / no-lowpass-dct / refine-mv-type=0 / copy-pic=1
  33. Default                                  : Yes
  34. Forced                                   : No
  35. Color range                              : Limited
  36. Color primaries                          : BT.709
  37. Audio
  38. ID                                       : 2
  39. Format                                   : AC-3
  40. Format/Info                              : Audio Coding 3
  41. Commercial name                          : Dolby Digital
  42. Codec ID                                 : A_AC3
  43. Duration                                 : 2 h 2 min
  44. Bit rate mode                            : Constant
  45. Bit rate                                 : 640 kb/s
  46. Channel(s)                               : 6 channels
  47. Channel layout                           : L R C LFE Ls Rs
  48. Sampling rate                            : 48.0 kHz
  49. Frame rate                               : 31.250 FPS (1536 SPF)
  50. Compression mode                         : Lossy
  51. Stream size                              : 562 MiB (11%)
  52. Service kind                             : Complete Main
  53. Default                                  : Yes
  54. Forced                                   : No
  55. Text #1
  56. ID                                       : 3
  57. Format                                   : PGS
  58. Muxing mode                              : zlib
  59. Codec ID                                 : S_HDMV/PGS
  60. Codec ID/Info                            : Picture based subtitle format used on BDs/HD-DVDs
  61. Duration                                 : 1 h 58 min
  62. Bit rate                                 : 23.9 kb/s
  63. Count of elements                        : 2886
  64. Stream size                              : 20.2 MiB (0%)
  65. Title                                    : CHT
  66. Language                                 : Chinese
  67. Default                                  : No
  68. Forced                                   : No
  69. Text #2
  70. ID                                       : 4
  71. Format                                   : PGS
  72. Muxing mode                              : zlib
  73. Codec ID                                 : S_HDMV/PGS
  74. Codec ID/Info                            : Picture based subtitle format used on BDs/HD-DVDs
  75. Duration                                 : 1 h 58 min
  76. Bit rate                                 : 22.9 kb/s
  77. Count of elements                        : 2886
  78. Stream size                              : 19.3 MiB (0%)
  79. Title                                    : CHS
  80. Language                                 : Chinese
  81. Default                                  : Yes
  82. Forced                                   : Yes
  83. Text #3
  84. ID                                       : 5
  85. Format                                   : PGS
  86. Muxing mode                              : zlib
  87. Codec ID                                 : S_HDMV/PGS
  88. Codec ID/Info                            : Picture based subtitle format used on BDs/HD-DVDs
  89. Duration                                 : 1 h 57 min
  90. Bit rate                                 : 12.1 kb/s
  91. Count of elements                        : 2878
  92. Stream size                              : 10.2 MiB (0%)
  93. Title                                    : ENG
  94. Language                                 : English
  95. Default                                  : No
  96. Forced                                   : No
  97. Menu
  98. 00:00:00.000                             : en:00:00:00.000
  99. 00:08:00.271                             : en:00:08:00.271
  100. 00:16:36.913                             : en:00:16:36.913
  101. 00:23:36.957                             : en:00:23:36.957
  102. 00:29:16.964                             : en:00:29:16.964
  103. 00:32:03.964                             : en:00:32:03.964
  104. 00:40:51.616                             : en:00:40:51.616
  105. 00:48:13.891                             : en:00:48:13.891
  106. 00:55:44.758                             : en:00:55:44.758
  107. 01:04:20.356                             : en:01:04:20.356
  108. 01:12:50.616                             : en:01:12:50.616
  109. 01:22:15.681                             : en:01:22:15.681
  110. 01:30:05.275                             : en:01:30:05.275
  111. 01:38:09.884                             : en:01:38:09.884
  112. 01:45:18.145                             : en:01:45:18.145
  113. 01:48:58.991                             : en:01:48:58.991





此处一般会放置磁力链或种子下载链接,不过此链接需要注册会员才能看到,点击“立即注册”
磁力链下载【下载链接仅对注册会员开放,登陆后可见】
BT9527电影天堂 1、BT9527电影天堂提供的BT文件均来源于互联网抓取,只供网友学习交流、技术提升使用。
2、我们遵守BitTorrent点对点协议原则,任何版权问题请联系原资源发布商,我们不处理任何版权纠纷,谢谢!如有争议请联系邮箱:BT9527#hotmail.com(#换成@)
3、如果您发现某页面或地址有错误,请联系站长邮箱BT9527#hotmail.com(#换成@),我们会尽快处理。您的热心是对BT9527电影天堂最大的支持。
4、本站建议去正规影院观看电影以支持电影行业发展。
最新回复 (0)

你可以在 登录 or 注册 后,对此帖发表评论!

返回
发新帖