剪刀手爱德华[国英多音轨/简繁英字幕].Edward.Scissorhands.25th.Anniversary.Remastered.Edition.BluRay.1080p.x265.10bit.2Audios-FRD 5.58GB

版主小s 5月前 197

✔资源类型:暂未分类   ✔电影年份:更 早   ✔电影地区:欧美   ✔电影分类:剧情

◎译  名 剪刀手爱德华 / 幻海奇缘(港)
◎片  名 Edward Scissorhands
◎年  代 1990
◎产  地 美国
◎类  别 剧情 / 爱情 / 奇幻
◎语  言 英语
◎上映日期 1990-12-06(美国)
◎IMDb链接 https://www.imdb.com/title/tt0099487/
◎豆瓣评分 8.7/10 (972998人评价)
◎豆瓣链接 https://movie.douban.com/subject/1292370/
◎片  长 105分钟
◎导  演 蒂姆·波顿 Tim Burton (id:1019002)
◎编  剧 蒂姆·波顿 Tim Burton (id:1019002)
       卡罗琳·汤普森 Caroline Thompson (id:1045371)
◎演  员 约翰尼·德普 Johnny Depp (id:1054456)
       薇诺娜·瑞德 Winona Ryder (id:1012519)
       黛安·韦斯特 Dianne Wiest (id:1002725)
       安东尼·迈克尔·豪尔 Anthony Michael Hall (id:1002696)
       凯西·贝克 Kathy Baker (id:1055726)
       罗伯特·奥利维里 Robert Oliveri (id:1133746)
       康查塔·费雷尔 Conchata Ferrell (id:1056139)
       卡罗琳·阿隆 Caroline Aaron (id:1025327)
       迪克·安东尼·威廉姆斯 Dick Anthony Williams (id:1164372)
       澳澜·琼斯 O-Lan Jones (id:1102808)
       文森特·普莱斯 Vincent Price (id:1019061)
       艾伦·阿金 Alan Arkin (id:1002730)
       苏珊·布洛马特 Susan Blommaert (id:1064097)
       约翰·戴维森 John Davidson (id:1079311)
       布莱恩·拉肯 Bryan Larkin (id:1108851)
       Victoria Price Victoria Price (id:1129218)
       Stuart Lancaster Stuart Lancaster (id:1103517)
       Gina Gallagher Gina Gallagher (id:1097065)
       阿隆·鲁斯汀 Aaron Lustig (id:1116537)
       阿兰·弗吉 Alan Fudge (id:1083598)
       史蒂文·布里尔 Steven Brill (id:1072924)
       Peter Palmer Peter Palmer (id:1136857)
       马克·麦考利 Marc Macaulay (id:1116920)
       唐娜·派洛尼 Donna Pieroni (id:1127204)
       Ken DeVaul Ken DeVaul (id:1081367)
       Kathy Dombo Kathy Dombo (id:1084635)
       Tabetha Thomas Tabetha Thomas (id:1157000)
       尼克·卡特 Nick Carter (id:1075446)
       布雷特·赖斯 Brett Rice (id:1414281)
       蒂姆·波顿 Tim Burton (id:1019002)
       丹尼斯·蒂诺威 Denise Di Novi (id:1282363)
       丹尼·艾夫曼 Danny Elfman (id:1019059)
       斯特凡·克萨普斯基 Stefan Czapsky (id:1281663)
       理查德·哈尔西 Richard Halsey (id:1285882)
       谢丽尔·卡拉西克 Cheryl Carasik (id:1280048)
       Tom Duffield Tom Duffield (id:1282784)
       柯琳·阿特伍德 Colleen Atwood (id:1277560)
       维·尼尔 Ve Neill (id:1293011)
       史蒂夫·拉波特 Steve LaPorte (id:1289183)
       金·桑坦托尼奥 Kim Santantonio (id:1296669)
       Mary Ann Valdes Mary Ann Valdes (id:1299784)
       里克·斯特拉顿 Rick Stratton (id:1298538)
       Susan Schuler-Page Susan Schuler-Page (id:1296991)
       Werner Sherer Werner Sherer (id:1297436)
       约兰达·塔辛 Yolanda Toussieng (id:1299453)
       Irene Aparicio Irene Aparicio (id:1277314)
       费恩·巴奇纳 Fern Buchner (id:1279549)
       容.格瑞斯 Ron Gress (id:1285436)
       彼得·库兰 Peter Kuran (id:1289126)
       伊恩·亨特 Ian Hunter (id:1287177)
       Thomas Valentine Thomas Valentine (id:1299794)
       马克·斯泰特森 Mark Stetson (id:1298397)
       罗伯特·斯普尔洛克 Robert Spurlock (id:1298196)

◎简  介
  爱德华(约翰尼?戴普 饰)是一个机器人,他拥有人的心智,却有一双剪刀手,孤独地生活在古堡里,闯入古堡的化妆品推销员佩格把他带回家,让他走进了人类的世界。单纯的爱德华爱上了佩格的女儿金(薇诺娜?瑞德 饰),金也慢慢的被爱德华的善良所吸引。                                    
                                但是,一连串的意外事情让周围的人邻居对爱德华的态度从喜欢变成无法接受,爱德华痛苦地发现,他总是好心办坏事,连自己的爱人都不能拥抱,或许,他注定就不属于这个世界。

◎获奖情况 (共1项)
  第63届奥斯卡金像奖 (1991)
  最佳化妆(提名)

  1. ##### MediaInfo ######
  2. General
  3. Unique ID                                : 106394714724590741788551052112913439271 (0x500AE06F7E739A5A99689AFA75DF1A27)
  4. Complete name                            : Edward.Scissorhands.25th.Anniversary.Remastered.Edition.BluRay.1080p.x265.10bit.2Audios-FRD.mkv
  5. Format                                   : Matroska
  6. Format version                           : Version 4
  7. File size                                : 5.58 GiB
  8. Duration                                 : 1 h 45 min
  9. Overall bit rate                         : 7 606 kb/s
  10. Encoded date                             : UTC 2018-01-30 05:44:57
  11. Writing application                      : mkvmerge v20.0.0 ('I Am The Sun') 64-bit
  12. Writing library                          : libebml v1.3.5 + libmatroska v1.4.8
  13. Video
  14. ID                                       : 1
  15. Format                                   : HEVC
  16. Format/Info                              : High Efficiency Video Coding
  17. Format profile                           : Main 10@L4@High
  18. Codec ID                                 : V_MPEGH/ISO/HEVC
  19. Duration                                 : 1 h 45 min
  20. Bit rate                                 : 6 700 kb/s
  21. Width                                    : 1 920 pixels
  22. Height                                   : 1 040 pixels
  23. Display aspect ratio                     : 1.85:1
  24. Frame rate mode                          : Constant
  25. Frame rate                               : 23.976 (24000/1001/53354) FPS
  26. Color space                              : YUV
  27. Chroma subsampling                       : 4:2:0
  28. Bit depth                                : 10 bits
  29. Bits/(Pixel*Frame)                       : 0.140
  30. Stream size                              : 4.91 GiB (88%)
  31. Title                                    : 视频
  32. Default                                  : Yes
  33. Forced                                   : No
  34. Color range                              : Limited
  35. Color primaries                          : BT.709
  36. Audio #1
  37. ID                                       : 2
  38. Format                                   : AC-3
  39. Format/Info                              : Audio Coding 3
  40. Commercial name                          : Dolby Digital
  41. Codec ID                                 : A_AC3
  42. Duration                                 : 1 h 45 min
  43. Bit rate mode                            : Constant
  44. Bit rate                                 : 640 kb/s
  45. Channel(s)                               : 4 channels
  46. Channel layout                           : L R C Cb
  47. Sampling rate                            : 48.0 kHz
  48. Frame rate                               : 31.250 FPS (1536 SPF)
  49. Compression mode                         : Lossy
  50. Stream size                              : 481 MiB (8%)
  51. Title                                    : 英语ac3-4.0@640kbps
  52. Language                                 : English
  53. Service kind                             : Complete Main
  54. Default                                  : Yes
  55. Forced                                   : No
  56. Audio #2
  57. ID                                       : 3
  58. Format                                   : AC-3
  59. Format/Info                              : Audio Coding 3
  60. Commercial name                          : Dolby Digital
  61. Codec ID                                 : A_AC3
  62. Duration                                 : 1 h 44 min
  63. Bit rate mode                            : Constant
  64. Bit rate                                 : 224 kb/s
  65. Channel(s)                               : 2 channels
  66. Channel layout                           : L R
  67. Sampling rate                            : 48.0 kHz
  68. Frame rate                               : 31.250 FPS (1536 SPF)
  69. Compression mode                         : Lossy
  70. Delay relative to video                  : 18 ms
  71. Stream size                              : 168 MiB (3%)
  72. Title                                    : 国语ac3-2.0@224kbps
  73. Language                                 : Chinese
  74. Service kind                             : Complete Main
  75. Default                                  : No
  76. Forced                                   : No
  77. Text #1
  78. ID                                       : 4
  79. Format                                   : PGS
  80. Muxing mode                              : zlib
  81. Codec ID                                 : S_HDMV/PGS
  82. Codec ID/Info                            : Picture based subtitle format used on BDs/HD-DVDs
  83. Duration                                 : 1 h 41 min
  84. Bit rate                                 : 23.3 kb/s
  85. Count of elements                        : 2060
  86. Stream size                              : 17.0 MiB (0%)
  87. Title                                    : 简中
  88. Language                                 : Chinese
  89. Default                                  : Yes
  90. Forced                                   : No
  91. Text #2
  92. ID                                       : 5
  93. Format                                   : PGS
  94. Muxing mode                              : zlib
  95. Codec ID                                 : S_HDMV/PGS
  96. Codec ID/Info                            : Picture based subtitle format used on BDs/HD-DVDs
  97. Duration                                 : 1 h 44 min
  98. Bit rate                                 : 16.3 kb/s
  99. Count of elements                        : 1694
  100. Stream size                              : 12.2 MiB (0%)
  101. Title                                    : 繁中
  102. Language                                 : Chinese
  103. Default                                  : No
  104. Forced                                   : No
  105. Text #3
  106. ID                                       : 6
  107. Format                                   : PGS
  108. Muxing mode                              : zlib
  109. Codec ID                                 : S_HDMV/PGS
  110. Codec ID/Info                            : Picture based subtitle format used on BDs/HD-DVDs
  111. Duration                                 : 1 h 36 min
  112. Bit rate                                 : 53.1 kb/s
  113. Count of elements                        : 2068
  114. Stream size                              : 36.5 MiB (1%)
  115. Title                                    : 英语
  116. Language                                 : English
  117. Default                                  : No
  118. Forced                                   : No
  119. Menu
  120. 00:00:00.000                             : en:Chapter 01
  121. 00:02:44.956                             : en:Chapter 02
  122. 00:05:18.109                             : en:Chapter 03
  123. 00:12:24.619                             : en:Chapter 04
  124. 00:16:35.620                             : en:Chapter 05
  125. 00:28:31.501                             : en:Chapter 06
  126. 00:31:26.301                             : en:Chapter 07
  127. 00:33:28.256                             : en:Chapter 08
  128. 00:35:28.668                             : en:Chapter 09
  129. 00:38:14.876                             : en:Chapter 10
  130. 00:39:47.677                             : en:Chapter 11
  131. 00:45:03.409                             : en:Chapter 12
  132. 00:47:37.855                             : en:Chapter 13
  133. 00:54:37.566                             : en:Chapter 14
  134. 00:56:56.538                             : en:Chapter 15
  135. 01:01:17.799                             : en:Chapter 16
  136. 01:04:39.042                             : en:Chapter 17
  137. 01:09:21.449                             : en:Chapter 18
  138. 01:15:50.337                             : en:Chapter 19
  139. 01:19:04.156                             : en:Chapter 20
  140. 01:24:56.633                             : en:Chapter 21
  141. 01:27:05.554                             : en:Chapter 22
  142. 01:37:03.359                             : en:Chapter 23
  143. 01:39:45.813                             : en:Chapter 24
  144. 01:45:00.503                             : en:Chapter 25





此处一般会放置磁力链或种子下载链接,不过此链接需要注册会员才能看到,点击“立即注册”
磁力链下载【下载链接仅对注册会员开放,登陆后可见】
BT9527电影天堂 1、BT9527电影天堂提供的BT文件均来源于互联网抓取,只供网友学习交流、技术提升使用。
2、我们遵守BitTorrent点对点协议原则,任何版权问题请联系原资源发布商,我们不处理任何版权纠纷,谢谢!如有争议请联系邮箱:BT9527#hotmail.com(#换成@)
3、如果您发现某页面或地址有错误,请联系站长邮箱BT9527#hotmail.com(#换成@),我们会尽快处理。您的热心是对BT9527电影天堂最大的支持。
4、本站建议去正规影院观看电影以支持电影行业发展。
最新回复 (0)

你可以在 登录 or 注册 后,对此帖发表评论!

返回
发新帖