另一个世界[中文字幕].Black.Heaven.2010.1080p.BluRay.DTS.x265-10bit-ENTHD 6.51GB

版主小s 5月前 183

✔资源类型:暂未分类   ✔电影年份:2010   ✔电影地区:其他   ✔电影分类:剧情

◎标  题 另一个世界
◎译  名 黑欲天堂 / Black Heaven
◎片  名 L'autre monde
◎年  代 2010
◎产  地 法国 / 比利时
◎类  别 剧情 / 科幻 / 惊悚
◎语  言 法语
◎上映日期 2010-07-14
◎IMDb评分 5.5/10 (2003人评价)
◎IMDb链接 https://www.imdb.com/title/tt1479269/
◎豆瓣评分 6.0/10 (1008人评价)
◎豆瓣链接 https://movie.douban.com/subject/3885140/
◎片  长 France: 105 分钟
◎导  演 吉勒·马尚 Gilles Marchand
◎编  剧 吉勒·马尚 Gilles Marchand
       多米尼克·摩尔 Dominik Moll
◎演  员 格雷戈瓦·勒普兰斯-林盖 Grégoire Leprince-Ringuet
       露易丝·布尔昆 Louise Bourgoin
       梅尔维尔·珀波 Melvil Poupaud
       穆恩·戴莉 Moon Dailly
       斯万·阿劳德 Swann Arlaud
       帕特里克·德康 Patrick Descamps
       波林·艾蒂安 Pauline Etienne
       卡罗尔·斯科塔 Carole Scotta
       Caroline Benjo Caroline Benjo
       Nelly Quettier Nelly Quettier

◎简  介
  法国南部某个海滨小镇,默默无闻的粉刷工加斯帕(Gregoire Leprince-Ringuet 饰)与同龄女孩马丽安(Pauline Etienne 饰)相恋。某天,他们偶然拾到一部手机,手机里面的奇怪短信令他们颇为好奇,而桌面上那个颓废女孩的相片似乎也紧紧抓住了加斯帕的眼球。数日后,他们按照短信的内容跟踪了两名当事人——消瘦的青年龙(Swann Arlaud 饰)和颓废女孩山姆(Moon Daily 饰),结果这两人竟相约在山中自杀。加斯帕和马丽安匆忙营救,龙气绝身亡,山姆则捡回一条命。                                    
                                在此之后,加斯帕找到了山姆所玩的虚拟网络游戏“黑洞(Black Hole)”,渴望再次遇见那个神秘的女孩山姆,却由此走入一条充满凶险的黑暗之途……
  1. ##### MediaInfo ######
  2. General
  3. Unique ID                                : 134692908532757137065380964284055066408 (0x6554E91C0832FA09D70F8503503A9728)
  4. Complete name                            : Black.Heaven.2010.1080p.BluRay.DTS.x265-10bit-ENTHD.mkv
  5. Format                                   : Matroska
  6. Format version                           : Version 4
  7. File size                                : 6.51 GiB
  8. Duration                                 : 1 h 45 min
  9. Overall bit rate                         : 8 848 kb/s
  10. Movie name                               : Black Heaven 2010 1080p BluRay DTS x265-10bit-HDS
  11. Encoded date                             : UTC 2022-06-20 23:06:44
  12. Writing application                      : mkvmerge v67.0.0 ('Under Stars') 64-bit
  13. Writing library                          : libebml v1.4.2 + libmatroska v1.6.4
  14. Video
  15. ID                                       : 1
  16. Format                                   : HEVC
  17. Format/Info                              : High Efficiency Video Coding
  18. Format profile                           : Main 10@L5.1@High
  19. Codec ID                                 : V_MPEGH/ISO/HEVC
  20. Duration                                 : 1 h 45 min
  21. Bit rate                                 : 7 319 kb/s
  22. Width                                    : 1 920 pixels
  23. Height                                   : 816 pixels
  24. Display aspect ratio                     : 2.35:1
  25. Frame rate mode                          : Constant
  26. Frame rate                               : 23.976 (24000/1001/53354) FPS
  27. Color space                              : YUV
  28. Chroma subsampling                       : 4:2:0
  29. Bit depth                                : 10 bits
  30. Bits/(Pixel*Frame)                       : 0.195
  31. Stream size                              : 5.38 GiB (83%)
  32. Title                                    : @HDSky
  33. Writing library                          : x265 - H.265/HEVC codec
  34. Default                                  : Yes
  35. Forced                                   : No
  36. Audio
  37. ID                                       : 2
  38. Format                                   : DTS
  39. Format/Info                              : Digital Theater Systems
  40. Codec ID                                 : A_DTS
  41. Duration                                 : 1 h 45 min
  42. Bit rate mode                            : Constant
  43. Bit rate                                 : 1 509 kb/s
  44. Channel(s)                               : 6 channels
  45. Channel layout                           : C L R Ls Rs LFE
  46. Sampling rate                            : 48.0 kHz
  47. Frame rate                               : 93.750 FPS (512 SPF)
  48. Bit depth                                : 24 bits
  49. Compression mode                         : Lossy
  50. Stream size                              : 1.11 GiB (17%)
  51. Title                                    : French
  52. Language                                 : French
  53. Default                                  : Yes
  54. Forced                                   : No
  55. Text #1
  56. ID                                       : 3
  57. Format                                   : PGS
  58. Muxing mode                              : zlib
  59. Codec ID                                 : S_HDMV/PGS
  60. Codec ID/Info                            : Picture based subtitle format used on BDs/HD-DVDs
  61. Duration                                 : 1 h 38 min
  62. Bit rate                                 : 17.6 kb/s
  63. Count of elements                        : 1687
  64. Stream size                              : 12.5 MiB (0%)
  65. Title                                    : CHS
  66. Language                                 : Chinese
  67. Default                                  : Yes
  68. Forced                                   : No
  69. Text #2
  70. ID                                       : 4
  71. Format                                   : PGS
  72. Muxing mode                              : zlib
  73. Codec ID                                 : S_HDMV/PGS
  74. Codec ID/Info                            : Picture based subtitle format used on BDs/HD-DVDs
  75. Duration                                 : 1 h 38 min
  76. Bit rate                                 : 18.1 kb/s
  77. Count of elements                        : 1687
  78. Stream size                              : 12.8 MiB (0%)
  79. Title                                    : CHT
  80. Language                                 : Chinese
  81. Default                                  : Yes
  82. Forced                                   : No
  83. Menu
  84. 00:00:00.000                             : en:第 01 章
  85. 00:08:42.480                             : en:第 02 章
  86. 00:23:20.316                             : en:第 03 章
  87. 00:30:15.105                             : en:第 04 章
  88. 00:41:01.501                             : en:第 05 章
  89. 00:46:30.955                             : en:第 06 章
  90. 00:58:07.901                             : en:第 07 章
  91. 01:02:38.338                             : en:第 08 章
  92. 01:08:40.158                             : en:第 09 章
  93. 01:13:11.178                             : en:第 10 章
  94. 01:23:17.201                             : en:第 11 章
  95. 01:41:11.148                             : en:第 12 章





此处一般会放置磁力链或种子下载链接,不过此链接需要注册会员才能看到,点击“立即注册”
磁力链下载【下载链接仅对注册会员开放,登陆后可见】
BT9527电影天堂 1、BT9527电影天堂提供的BT文件均来源于互联网抓取,只供网友学习交流、技术提升使用。
2、我们遵守BitTorrent点对点协议原则,任何版权问题请联系原资源发布商,我们不处理任何版权纠纷,谢谢!如有争议请联系邮箱:BT9527#hotmail.com(#换成@)
3、如果您发现某页面或地址有错误,请联系站长邮箱BT9527#hotmail.com(#换成@),我们会尽快处理。您的热心是对BT9527电影天堂最大的支持。
4、本站建议去正规影院观看电影以支持电影行业发展。
最新回复 (0)

你可以在 登录 or 注册 后,对此帖发表评论!

返回
发新帖