红与黑[共2部合集][国英多音轨/简繁字幕].The.Red.and.the.Black.1954.Part.1-2.BluRay.1080p.2Audio.DTS-HD.MA.2.0.x265.10bit-ALT 20.09GB

版主小s 5月前 214

✔资源类型:暂未分类   ✔电影年份:合 集   ✔电影地区:其他   ✔电影分类:合集

◎标  题 红与黑
◎译  名 The Red and the Black
◎片  名 Le Rouge et le Noir
◎年  代 1954
◎产  地 意大利 / 法国
◎类  别 剧情
◎语  言 法语
◎上映日期 1954-10-29
◎IMDb评分 6.7/10 (636人评价)
◎IMDb链接 https://www.imdb.com/title/tt0047432/
◎豆瓣评分 7.7/10 (2694人评价)
◎豆瓣链接 https://movie.douban.com/subject/1641648/
◎片  长 186分钟
◎导  演 克洛德·奥当-拉哈 Claude Autant-Lara
◎编  剧 司汤达 Stendhal
       克洛德·奥当-拉哈 Claude Autant-Lara
       让·奥朗什 Jean Aurenche
       皮埃尔·博斯特 Pierre Bost
◎演  员 热拉尔·菲利普 Gérard Philipe
       达尼埃尔·达里约 Danielle Darrieux
       安东内拉·卢瓦尔迪 Antonella Lualdi
       让·梅屈尔 Jean Mercure
       让·马丁内利 Jean Martinelli
       赫伯特·诺尔 Hubert Noël
       乔治·威尔森 Georges Wilson
       阿伯特·米歇尔 Albert Michel
       Raphaël Patorni Raphaël Patorni
       安娜-玛丽亚·桑德勒 Anna-Maria Sandri
       亚历山大·里尼奥 Alexandre Rignault
       Gérard Séty Gérard Séty
       克洛德·西尔万 Claude Sylvain
       雅克·瓦雷纳 Jacques Varennes
       西尔万 Sylvain
       Lucien Guervil Lucien Guervil
       皮埃尔·茹尔当 Pierre Jourdan
       Jean-Marie Amato Jean-Marie Amato
       Antoine Balpêtré Antoine Balpêtré
       Thomy Bourdelle Thomy Bourdelle
       罗伯特·伯瑞 Robert Berri
       Jacques Clancy Jacques Clancy
       安德烈·布吕诺 André Brunot
       保罗·费弗尔 Paul Faivre
       乔治·德克里埃 Georges Descrières
       让-皮埃尔·格勒尼耶 Jean-Pierre Grenier
       爱尔莎·玛蒂妮利 Elsa Martinelli
       Gianni Hecht Lucari Gianni Hecht Lucari
       René Cloërec René Cloërec
       马克斯·杜伊 Max Douy
       罗辛·德拉马尔 Rosine Delamare

◎简  介
  于连(杰拉·菲利浦 Gérard Philipe 饰)不过是一个普通木匠的儿子,可是野心满满的他却希望能够跻身于上流社会。战争年代过去了,想要当兵不成的于连只得成为了一名牧师,他来到了市长雷纳尔(Jean Martinelli 饰)家担任家庭教师,却和市长夫人路易斯(达尼尔·达黎欧 Danielle Darrieux 饰)开始了一段不伦之恋。                                    
                                恋情败露后,于连灰头土脸的来到了巴黎,拉莫尔侯爵(Jean Mercure 饰)成为了于连的下一块“垫脚石”。很快,于连就和侯爵的女儿马蒂尔德(安东妮拉·卢阿尔迪 Antonella Lualdi 饰)相恋了,婚后,于连得到了他一直渴望的财富和名望,可是好景不长,很快,他就陷入了丑闻和阶级斗争之中成为了牺牲品。



  1. 合集文件列表:

  2. 1.The.Red.and.the.Black.1954.Part.1.BluRay.1080p.2Audio.DTS-HD.MA.2.0.x265.10bit-ALT.mkv 11.14GB

  3. 2.The.Red.and.the.Black.1954.Part.2.BluRay.1080p.2Audio.DTS-HD.MA.2.0.x265.10bit-ALT.mkv 8.95GB





  1. ##### MediaInfo ######
  2. General
  3. Unique ID                                : 143165250804217829958868180936811148264 (0x6BB49FD5879CBE17303C26DF40BCF3E8)
  4. Complete name                            : The.Red.and.the.Black.1954.Part.1.BluRay.1080p.2Audio.DTS-HD.MA.2.0.x265.10bit-ALT.mkv
  5. Format                                   : Matroska
  6. Format version                           : Version 4
  7. File size                                : 11.1 GiB
  8. Duration                                 : 1 h 44 min
  9. Overall bit rate mode                    : Variable
  10. Overall bit rate                         : 15.2 Mb/s
  11. Encoded date                             : UTC 2022-06-22 04:11:49
  12. Writing application                      : mkvmerge v49.0.0 ('Sick Of Losing Soulmates') 64-bit
  13. Writing library                          : libebml v1.4.0 + libmatroska v1.6.1
  14. Video
  15. ID                                       : 1
  16. Format                                   : HEVC
  17. Format/Info                              : High Efficiency Video Coding
  18. Format profile                           : Main 10@L5.1@High
  19. Codec ID                                 : V_MPEGH/ISO/HEVC
  20. Duration                                 : 1 h 44 min
  21. Bit rate                                 : 9 486 kb/s
  22. Width                                    : 1 438 pixels
  23. Height                                   : 1 080 pixels
  24. Display aspect ratio                     : 4:3
  25. Frame rate mode                          : Constant
  26. Frame rate                               : 24.000 FPS
  27. Color space                              : YUV
  28. Chroma subsampling                       : 4:2:0
  29. Bit depth                                : 10 bits
  30. Bits/(Pixel*Frame)                       : 0.255
  31. Stream size                              : 6.95 GiB (62%)
  32. Title                                    : HEVC, x265Main10@L5.1@High, 24 fps @ 9486 kbps
  33. Writing library                          : x265 3.5+36-1f2c8da77:[Windows][GCC 11.2.0][64 bit] 10bit
  34. Encoding settings                        : cpuid=533541111039 / frame-threads=4 / numa-pools=16 / wpp / no-pmode / no-pme / no-psnr / no-ssim / log-level=2 / input-csp=1 / input-res=1438x1080 / interlace=0 / total-frames=150965 / level-idc=51 / high-tier=1 / uhd-bd=0 / ref=5 / no-allow-non-conformance / no-repeat-headers / annexb / no-aud / no-eob / no-eos / no-hrd / info / hash=0 / no-temporal-layers / open-gop / min-keyint=24 / keyint=240 / gop-lookahead=0 / bframes=6 / b-adapt=2 / b-pyramid / bframe-bias=0 / rc-lookahead=40 / lookahead-slices=0 / NTMzNTQ=uuDQuD2mJt9fsCf / scenecut=40 / no-hist-scenecut / radl=0 / no-splice / no-intra-refresh / ctu=32 / min-cu-size=8 / no-rect / no-amp / max-tu-size=32 / tu-inter-depth=3 / tu-intra-depth=3 / limit-tu=4 / rdoq-level=2 / dynamic-rd=0.00 / no-ssim-rd / signhide / no-tskip / nr-intra=0 / nr-inter=0 / no-constrained-intra / no-strong-intra-smoothing / max-merge=4 / limit-refs=1 / limit-modes / me=3 / subme=4 / merange=25 / temporal-mvp / no-frame-dup / no-hme / weightp / weightb / no-analyze-src-pics / deblock=-3:-3 / no-sao / no-sao-non-deblock / rd=6 / selective-sao=0 / no-early-skip / rskip / no-fast-intra / no-tskip-fast / no-cu-lossless / b-intra / no-splitrd-skip / rdpenalty=0 / psy-rd=2.00 / psy-rdoq=1.00 / no-rd-refine / no-lossless / cbqpoffs=-2 / crqpoffs=-2 / rc=crf / crf=17.0 / qcomp=0.65 / qpstep=4 / stats-write=0 / stats-read=0 / vbv-maxrate=80000 / vbv-bufsize=80000 / vbv-init=0.9 / min-vbv-fullness=50.0 / max-vbv-fullness=80.0 / crf-max=0.0 / crf-min=0.0 / ipratio=1.40 / pbratio=1.30 / aq-mode=2 / aq-strength=0.85 / cutree / zone-count=0 / no-strict-cbr / qg-size=32 / no-rc-grain / qpmax=69 / qpmin=0 / no-const-vbv / sar=1 / overscan=0 / videoformat=5 / range=0 / colorprim=1 / transfer=1 / colormatrix=1 / chromaloc=0 / display-window=0 / cll=0,0 / min-luma=0 / max-luma=1023 / log2-max-poc-lsb=8 / vui-timing-info / vui-hrd-info / slices=1 / no-opt-qp-pps / no-opt-ref-list-length-pps / no-multi-pass-opt-rps / scenecut-bias=0.05 / hist-threshold=0.03 / no-opt-cu-delta-qp / no-aq-motion / no-hdr10 / no-hdr10-opt / no-dhdr10-opt / no-idr-recovery-sei / analysis-reuse-level=0 / analysis-save-reuse-level=0 / analysis-load-reuse-level=0 / scale-factor=0 / refine-intra=0 / refine-inter=0 / refine-mv=1 / refine-ctu-distortion=0 / no-limit-sao / ctu-info=0 / no-lowpass-dct / refine-analysis-type=0 / copy-pic=1 / max-ausize-factor=1.0 / no-dynamic-refine / no-single-sei / no-hevc-aq / no-svt / no-field / qp-adaptation-range=1.00 / scenecut-aware-qp=0conformance-window-offsets / right=0 / bottom=0 / NTMzNTQ= / decoder-max-rate=0 / no-vbv-live-multi-pass
  35. Language                                 : English
  36. Default                                  : Yes
  37. Forced                                   : No
  38. Color range                              : Limited
  39. Color primaries                          : BT.709
  40. Transfer characteristics                 : BT.709
  41. Matrix coefficients                      : BT.709
  42. Audio #1
  43. ID                                       : 2
  44. Format                                   : DTS XLL
  45. Format/Info                              : Digital Theater Systems
  46. Commercial name                          : DTS-HD Master Audio
  47. Codec ID                                 : A_DTS
  48. Duration                                 : 1 h 44 min
  49. Bit rate mode                            : Variable
  50. Bit rate                                 : 1 661 kb/s
  51. Channel(s)                               : 2 channels
  52. Channel layout                           : L R
  53. Sampling rate                            : 48.0 kHz
  54. Frame rate                               : 93.750 FPS (512 SPF)
  55. Bit depth                                : 16 bits
  56. Compression mode                         : Lossless
  57. Stream size                              : 1.22 GiB (11%)
  58. Title                                    : French DTS-HD Master Audio 2.0 @ 1661 kbps
  59. Language                                 : French
  60. Default                                  : Yes
  61. Forced                                   : No
  62. Audio #2
  63. ID                                       : 3
  64. Format                                   : DTS XLL
  65. Format/Info                              : Digital Theater Systems
  66. Commercial name                          : DTS-HD Master Audio
  67. Codec ID                                 : A_DTS
  68. Duration                                 : 1 h 44 min
  69. Bit rate mode                            : Variable
  70. Bit rate                                 : 1 983 kb/s
  71. Channel(s)                               : 2 channels
  72. Channel layout                           : L R
  73. Sampling rate                            : 48.0 kHz
  74. Frame rate                               : 93.750 FPS (512 SPF)
  75. Bit depth                                : 24 bits
  76. Compression mode                         : Lossless
  77. Stream size                              : 1.45 GiB (13%)
  78. Title                                    : Mandarin DTS-HD Master Audio 2.0 @ 1983 kbps  上译
  79. Language                                 : Chinese
  80. Default                                  : No
  81. Forced                                   : No
  82. Audio #3
  83. ID                                       : 4
  84. Format                                   : DTS XLL
  85. Format/Info                              : Digital Theater Systems
  86. Commercial name                          : DTS-HD Master Audio
  87. Codec ID                                 : A_DTS
  88. Duration                                 : 1 h 44 min
  89. Bit rate mode                            : Variable
  90. Bit rate                                 : 1 997 kb/s
  91. Channel(s)                               : 2 channels
  92. Channel layout                           : L R
  93. Sampling rate                            : 48.0 kHz
  94. Frame rate                               : 93.750 FPS (512 SPF)
  95. Bit depth                                : 24 bits
  96. Compression mode                         : Lossless
  97. Stream size                              : 1.46 GiB (13%)
  98. Title                                    : Mandarin DTS-HD Master Audio 2.0 @ 1997 kbps  央视
  99. Language                                 : Chinese
  100. Default                                  : No
  101. Forced                                   : No
  102. Text #1
  103. ID                                       : 5
  104. Format                                   : PGS
  105. Codec ID                                 : S_HDMV/PGS
  106. Codec ID/Info                            : Picture based subtitle format used on BDs/HD-DVDs
  107. Duration                                 : 1 h 44 min
  108. Bit rate                                 : 29.8 kb/s
  109. Count of elements                        : 2686
  110. Stream size                              : 22.3 MiB (0%)
  111. Title                                    : Fre/SUP
  112. Language                                 : French
  113. Default                                  : No
  114. Forced                                   : No
  115. Text #2
  116. ID                                       : 6
  117. Format                                   : PGS
  118. Codec ID                                 : S_HDMV/PGS
  119. Codec ID/Info                            : Picture based subtitle format used on BDs/HD-DVDs
  120. Duration                                 : 1 h 43 min
  121. Bit rate                                 : 24.7 kb/s
  122. Count of elements                        : 2410
  123. Stream size                              : 18.3 MiB (0%)
  124. Title                                    : Chs/SUP  简体
  125. Language                                 : Chinese
  126. Default                                  : Yes
  127. Forced                                   : No
  128. Text #3
  129. ID                                       : 7
  130. Format                                   : PGS
  131. Codec ID                                 : S_HDMV/PGS
  132. Codec ID/Info                            : Picture based subtitle format used on BDs/HD-DVDs
  133. Duration                                 : 1 h 43 min
  134. Bit rate                                 : 25.9 kb/s
  135. Count of elements                        : 2410
  136. Stream size                              : 19.2 MiB (0%)
  137. Title                                    : Cht/SUP  繁体
  138. Language                                 : Chinese
  139. Default                                  : No
  140. Forced                                   : No
  141. Menu
  142. 00:00:00.000                             : en:第 01 章
  143. 00:06:21.165                             : en:第 02 章
  144. 00:13:26.250                             : en:第 03 章
  145. 00:23:36.333                             : en:第 04 章
  146. 00:30:07.583                             : en:第 05 章
  147. 00:37:54.625                             : en:第 06 章
  148. 00:47:27.166                             : en:第 07 章
  149. 00:58:44.958                             : en:第 08 章
  150. 01:06:28.916                             : en:第 09 章
  151. 01:14:21.750                             : en:第 10 章
  152. 01:22:25.332                             : en:第 11 章
  153. 01:37:30.875                             : en:第 12 章





此处一般会放置磁力链或种子下载链接,不过此链接需要注册会员才能看到,点击“立即注册”
磁力链下载【下载链接仅对注册会员开放,登陆后可见】
BT9527电影天堂 1、BT9527电影天堂提供的BT文件均来源于互联网抓取,只供网友学习交流、技术提升使用。
2、我们遵守BitTorrent点对点协议原则,任何版权问题请联系原资源发布商,我们不处理任何版权纠纷,谢谢!如有争议请联系邮箱:BT9527#hotmail.com(#换成@)
3、如果您发现某页面或地址有错误,请联系站长邮箱BT9527#hotmail.com(#换成@),我们会尽快处理。您的热心是对BT9527电影天堂最大的支持。
4、本站建议去正规影院观看电影以支持电影行业发展。
最新回复 (0)

你可以在 登录 or 注册 后,对此帖发表评论!

返回
发新帖