大块头有大智慧[国粤多音轨/繁英字幕].Running.on.Karma.2003.BluRay.1080p.x265.10bit.2Audio-MiniHD 3.88GB

版主小s 5月前 198

✔资源类型:暂未分类   ✔电影年份:更 早   ✔电影地区:香港   ✔电影分类:剧情

◎译  名 大块头有大智慧 / 大只佬 / Running on Karma
◎片  名 大隻佬
◎年  代 2003
◎产  地 中国香港 / 中国大陆
◎类  别 剧情 / 动作 / 惊悚
◎语  言 粤语 / 英语 / 印地语
◎上映日期 2003-09-27
◎IMDb链接 https://www.imdb.com/title/tt0374184/
◎豆瓣评分 6.7/10 (76887人评价)
◎豆瓣链接 https://movie.douban.com/subject/1300359/
◎片  长 92分钟
◎导  演 杜琪峰 Johnnie To (id:1160186)
       韦家辉 Ka-Fai Wai (id:1017843)
◎编  剧 韦家辉 Ka-Fai Wai (id:1017843)
       游乃海 Nai-Hoi Yau (id:1161310)
       欧健儿 Kin-Yee Au (id:1303521)
       叶天成 Tin-Shing Yip (id:1306719)
◎演  员 刘德华 Andy Lau (id:1054424)
       张柏芝 Cecilia Cheung (id:1003495)
       张兆辉 Siu-Fai Cheung (id:1005843)
       汤宝如 Karen Tong (id:1029904)
       秦煌 Wong Chun (id:1274570)
       黄华和 Wah Wo Wong (id:1355706)
       元彬 Bun Yuen (id:1278657)
       王文駿 Man-Chun Wong (id:1441056)
       韩国材 Kwok Choi Hon (id:1343053)
       黄志伟 Chi Wai Wong (id:1308890)
       于文仲 Wenzhong Yu (id:1317135)
       张珊萌 Shanmeng Zhang (id:1334856)
       谭天宝 Tin-Bo Tam (id:1471588)
       侯克明 Keming Hou (id:1325604)
       杜琪峰 Johnnie To (id:1160186)
       黄嘉倩 Cacine Wong (id:1301182)
       郑兆强 Siu-keung Cheng (id:1280597)
       罗永昌 Wing-cheong Law (id:1274489)
       余家安 Bruce Yu (id:1301555)
       余家安 Bruce Yu (id:1301555)
       马克.加巴里诺 Mark Garbarino (id:1284493)
       麦启光 Albert Kai-kwong Mak (id:1349070)
       罗永昌 Wing-cheong Law (id:1274489)
       莫美华 May Mok (id:1302552)
       罗柏禹 Charlie Lo (id:1330668)
       马文现 Stephen Ma (id:1290573)
       林峰 Feng Lin (id:1322676)
       邝庭晃 Ting Fong Kwong (id:1388174)
       黄华和 Wah Wo Wong (id:1355706)

◎简  介
  大隻佬(刘德华 饰)在跳艳舞时与前来扫黄的警花李凤仪(张柏芝 饰)相遇,同时,重案组亦在附近调查一起印度人杀人案。大隻佬逃跑时与逃走的印度逃犯不期而遇,最后逃犯逃走了,大隻佬被当成了嫌犯抓回了警局。其实大隻佬以前是大陆一名武僧,因好友小翠惨死,悲伤过度在树下不慎打死小鸟,对着小鸟坐禅7天7夜因而获得能看到因果的能力——看到结果时,便能看到因由。他看到了小翠的死是因果,他打死小鸟是因果,因无法平静接受这一切,他还俗了。                                    
                                这次,他看到了李凤仪,看到了日军在杀人,便知她罪业太重,会遭遇横祸。为了帮助这位心地善良的警花,他开始暗中帮助她,帮她屡破奇案,救她于危难,希望能帮她洗刷罪业……

◎获奖情况 (共23项)
  第41届台北金马影展 (2004)
  金马奖 最佳造型设计(提名)
   └──黄家宝 (id:1309674)
  金马奖 最佳动作设计(提名)
   └──元彬 (id:1278657)
  金马奖 最佳原创歌曲(提名)
   └──林夕 (id:1370440)
  金马奖 最佳视觉效果(提名)
   └──马文现 (id:1290573)

  第23届香港电影金像奖 (2004)
  最佳电影
  最佳导演(提名)
  最佳编剧
  最佳男主角
   └──刘德华 (id:1054424)
  最佳女主角(提名)
   └──张柏芝 (id:1003495)
  最佳男配角(提名)
   └──张兆辉 (id:1005843)
  最佳剪接(提名)
   └──罗永昌 (id:1274489)
  最佳美术指导(提名)
   └──余家安 (id:1301555)
  最佳服装造型设计(提名)
  最佳动作设计(提名)
   └──元彬 (id:1278657)
  最佳原创电影歌曲(提名)
  最佳音响效果(提名)
  最佳视觉效果(提名)
   └──马文现 (id:1290573)

  第4届华语电影传媒大奖 (2004)
  最受欢迎男演员
   └──刘德华 (id:1054424)
  最佳电影(提名)
  最佳导演(提名)
  最佳男主角
   └──刘德华 (id:1054424)
  最佳女主角(提名)
   └──张柏芝 (id:1003495)
  最佳编剧

  1. ##### MediaInfo ######
  2. General
  3. Unique ID                                : 182589122944356245752555597801610323819 (0x895D62CCF348ADEEE29AA76B6BD8A76B)
  4. Complete name                            : Running.on.Karma.2003.BluRay.1080p.x265.10bit.2Audio-MiniHD.mkv
  5. Format                                   : Matroska
  6. Format version                           : Version 4
  7. File size                                : 3.88 GiB
  8. Duration                                 : 1 h 32 min
  9. Overall bit rate                         : 6 009 kb/s
  10. Encoded date                             : UTC 2018-03-03 05:30:39
  11. Writing application                      : mkvmerge v20.0.0 ('I Am The Sun') 64-bit
  12. Writing library                          : libebml v1.3.5 + libmatroska v1.4.8
  13. Video
  14. ID                                       : 1
  15. Format                                   : HEVC
  16. Format/Info                              : High Efficiency Video Coding
  17. Format profile                           : Main 10@L4@Main
  18. Codec ID                                 : V_MPEGH/ISO/HEVC
  19. Duration                                 : 1 h 32 min
  20. Bit rate                                 : 4 609 kb/s
  21. Width                                    : 1 920 pixels
  22. Height                                   : 1 080 pixels
  23. Display aspect ratio                     : 16:9
  24. Frame rate mode                          : Constant
  25. Frame rate                               : 24.000 FPS
  26. Color space                              : YUV
  27. Chroma subsampling                       : 4:2:0
  28. Bit depth                                : 10 bits
  29. Bits/(Pixel*Frame)                       : 0.093
  30. Stream size                              : 2.98 GiB (77%)
  31. Writing library                          : x265 2.7+1-2aa737a99f51:[Windows][GCC 7.3.0][64 bit] 10bit
  32. Encoding settings                        : cpuid=533541173503 / frame-threads=3 / numa-pools=8 / wpp / no-pmode / no-pme / no-psnr / no-ssim / log-level=2 / csv / csv-log-level=0 / input-csp=1 / input-res=1920x1080 / interlace=0 / total-frames=133138 / level-idc=0 / high-tier=1 / uhd-bd=0 / ref=5 / no-allow-non-conformance / no-repeat-headers / annexb / no-aud / no-hrd / info / hash=0 / no-temporal-layers / no-open-gop / min-keyint=1 / keyint=360 / gop-lookahead=0 / bframes=9 / b-adapt=2 / b-pyramid / bframe-bias=0 / rc-lookahead=60 / lookahead-slices=4 / NTMzNTQ=uuDQuD2mJt9fsCf / scenecut=40 / radl=0 / no-intra-refresh / ctu=32 / min-cu-size=8 / rect / no-amp / max-tu-size=16 / tu-inter-depth=2 / tu-intra-depth=2 / limit-tu=4 / rdoq-level=1 / dynamic-rd=0.00 / ssim-rd / signhide / no-tskip / nr-intra=0 / nr-inter=0 / no-constrained-intra / no-strong-intra-smoothing / max-merge=3 / limit-refs=2 / limit-modes / me=3 / subme=5 / merange=25 / temporal-mvp / weightp / weightb / no-analyze-src-pics / deblock=-1:-1 / no-sao / no-sao-non-deblock / rd=4 / no-early-skip / rskip / no-fast-intra / no-tskip-fast / no-cu-lossless / b-intra / no-splitrd-skip / rdpenalty=1 / psy-rd=0.00 / psy-rdoq=5.00 / no-rd-refine / no-lossless / cbqpoffs=-2 / crqpoffs=-2 / rc=crf / crf=19.0 / qcomp=0.70 / qpstep=4 / stats-write=0 / stats-read=0 / ipratio=1.40 / pbratio=1.30 / aq-mode=2 / aq-strength=0.80 / cutree / zone-count=0 / no-strict-cbr / qg-size=16 / no-rc-grain / qpmax=69 / qpmin=0 / no-const-vbv / sar=0 / overscan=0 / videoformat=5 / range=0 / colorprim=1 / transfer=2 / colormatrix=2 / chromaloc=0 / display-window=0 / max-cll=0,0 / min-luma=0 / max-luma=1023 / log2-max-poc-lsb=8 / vui-timing-info / vui-hrd-info / slices=1 / no-opt-qp-pps / no-opt-ref-list-length-pps / no-multi-pass-opt-rps / scenecut-bias=0.05 / no-opt-cu-delta-qp / no-aq-motion / no-hdr / no-hdr-opt / no-dhdr10-opt / analysis-reuse-level=5 / scale-factor=0 / refine-intra=0 / refine-inter=0 / refine-mv=0 / no-limit-sao / ctu-info=0 / no-lowpass-dct / refine-mv-type=0 / copy-pic=1
  33. Language                                 : Chinese
  34. Default                                  : Yes
  35. Forced                                   : No
  36. Color range                              : Limited
  37. Color primaries                          : BT.709
  38. Audio #1
  39. ID                                       : 2
  40. Format                                   : AC-3
  41. Format/Info                              : Audio Coding 3
  42. Commercial name                          : Dolby Digital
  43. Codec ID                                 : A_AC3
  44. Duration                                 : 1 h 32 min
  45. Bit rate mode                            : Constant
  46. Bit rate                                 : 640 kb/s
  47. Channel(s)                               : 6 channels
  48. Channel layout                           : L R C LFE Ls Rs
  49. Sampling rate                            : 48.0 kHz
  50. Frame rate                               : 31.250 FPS (1536 SPF)
  51. Compression mode                         : Lossy
  52. Stream size                              : 423 MiB (11%)
  53. Title                                    : 粤语
  54. Language                                 : Chinese
  55. Service kind                             : Complete Main
  56. Default                                  : Yes
  57. Forced                                   : No
  58. Audio #2
  59. ID                                       : 3
  60. Format                                   : AC-3
  61. Format/Info                              : Audio Coding 3
  62. Commercial name                          : Dolby Digital
  63. Codec ID                                 : A_AC3
  64. Duration                                 : 1 h 32 min
  65. Bit rate mode                            : Constant
  66. Bit rate                                 : 640 kb/s
  67. Channel(s)                               : 6 channels
  68. Channel layout                           : L R C LFE Ls Rs
  69. Sampling rate                            : 48.0 kHz
  70. Frame rate                               : 31.250 FPS (1536 SPF)
  71. Compression mode                         : Lossy
  72. Stream size                              : 423 MiB (11%)
  73. Title                                    : 国语
  74. Language                                 : Chinese
  75. Service kind                             : Complete Main
  76. Default                                  : No
  77. Forced                                   : No
  78. Text #1
  79. ID                                       : 4
  80. Format                                   : PGS
  81. Muxing mode                              : zlib
  82. Codec ID                                 : S_HDMV/PGS
  83. Codec ID/Info                            : Picture based subtitle format used on BDs/HD-DVDs
  84. Title                                    : 繁体
  85. Language                                 : Chinese
  86. Default                                  : Yes
  87. Forced                                   : No
  88. Text #2
  89. ID                                       : 5
  90. Format                                   : PGS
  91. Muxing mode                              : zlib
  92. Codec ID                                 : S_HDMV/PGS
  93. Codec ID/Info                            : Picture based subtitle format used on BDs/HD-DVDs
  94. Title                                    : 英文
  95. Language                                 : English
  96. Default                                  : No
  97. Forced                                   : No
  98. Menu
  99. 00:00:00.000                             : en:Chapter 01
  100. 00:05:41.750                             : en:Chapter 02
  101. 00:09:13.708                             : en:Chapter 03
  102. 00:12:13.791                             : en:Chapter 04
  103. 00:16:25.458                             : en:Chapter 05
  104. 00:20:27.208                             : en:Chapter 06
  105. 00:26:58.208                             : en:Chapter 07
  106. 00:31:41.333                             : en:Chapter 08
  107. 00:35:20.958                             : en:Chapter 09
  108. 00:39:10.333                             : en:Chapter 10
  109. 00:41:20.708                             : en:Chapter 11
  110. 00:47:01.916                             : en:Chapter 12
  111. 00:52:10.083                             : en:Chapter 13
  112. 00:58:20.750                             : en:Chapter 14
  113. 01:02:15.125                             : en:Chapter 15
  114. 01:06:51.833                             : en:Chapter 16
  115. 01:11:12.208                             : en:Chapter 17
  116. 01:16:42.291                             : en:Chapter 18
  117. 01:21:40.041                             : en:Chapter 19
  118. 01:27:31.458                             : en:Chapter 20





此处一般会放置磁力链或种子下载链接,不过此链接需要注册会员才能看到,点击“立即注册”
磁力链下载【下载链接仅对注册会员开放,登陆后可见】
BT9527电影天堂 1、BT9527电影天堂提供的BT文件均来源于互联网抓取,只供网友学习交流、技术提升使用。
2、我们遵守BitTorrent点对点协议原则,任何版权问题请联系原资源发布商,我们不处理任何版权纠纷,谢谢!如有争议请联系邮箱:BT9527#hotmail.com(#换成@)
3、如果您发现某页面或地址有错误,请联系站长邮箱BT9527#hotmail.com(#换成@),我们会尽快处理。您的热心是对BT9527电影天堂最大的支持。
4、本站建议去正规影院观看电影以支持电影行业发展。
最新回复 (0)

你可以在 登录 or 注册 后,对此帖发表评论!

返回
发新帖