哈姆雷特[简繁英字幕].Hamlet.1996.EUR.BluRay.1080p.x265.10bit-MiniHD 8.08GB

版主小s 5月前 201

✔资源类型:暂未分类   ✔电影年份:更 早   ✔电影地区:欧美   ✔电影分类:剧情

◎译  名 哈姆雷特 / 王子复仇记 / William Shakespeare's Hamlet
◎片  名 Hamlet
◎年  代 1996
◎产  地 英国 / 美国
◎类  别 剧情 / 爱情 / 惊悚 / 犯罪
◎语  言 英语
◎上映日期 1996-12-25(美国)
◎IMDb链接 https://www.imdb.com/title/tt0116477/
◎豆瓣评分 8.3/10 (5387人评价)
◎豆瓣链接 https://movie.douban.com/subject/1301717/
◎片  长 242 分钟
◎导  演 肯尼思·布拉纳 Kenneth Branagh (id:1036342)
◎编  剧 威廉·莎士比亚 William Shakespeare (id:1044735)
       肯尼思·布拉纳 Kenneth Branagh (id:1036342)
◎演  员 理查德·阿滕伯勒 Richard Attenborough (id:1049601)
       大卫·布莱尔 David Blair (id:1064777)
       布耐恩·布莱塞得 Brian Blessed (id:1027900)
       肯尼思·布拉纳 Kenneth Branagh (id:1036342)
       理查德·布赖尔斯 Richard Briers (id:1014070)
       迈克尔·布莱恩特 Michael Bryant (id:1002936)
       朱莉·克里斯蒂 Julie Christie (id:1000086)
       比利·克里斯托 Billy Crystal (id:1031893)
       朱迪·丹奇 Judi Dench (id:1054384)
       热拉尔·德帕迪约 Gérard Depardieu (id:1013845)
       里斯·丁斯代尔 Reece Dinsdale (id:1088818)
       肯·多德 Ken Dodd (id:1081316)
       约翰·米尔斯 John Mills (id:1123075)
       西蒙·拉塞尔·比尔 Simon Russell Beale (id:1145977)
       Thomas Szekeres Thomas Szekeres (id:1151995)
       佩蒂塔·维克斯 Perdita Weeks (id:1163626)
       唐·沃灵顿 Don Warrington (id:1435358)
       叶西园 David Yip (id:1167632)
       约翰·斯宾塞 John Spencer (id:1154416)
       拉维尔·伊斯亚诺夫 Ravil Isyanov (id:1361381)
       德里克·雅各比 Derek Jacobi (id:1027866)
       安吉拉·道格拉斯 Angela Douglas (id:1085053)
       查尔顿·赫斯顿 Charlton Heston (id:1027817)
       迈克尔·马罗尼 Michael Maloney (id:1019190)
       罗宾·威廉姆斯 Robin Williams (id:1009241)
       杰克·莱蒙 Jack Lemmon (id:1007006)
       约翰·吉尔古德 John Gielgud (id:1000249)
       蒂莫西·斯波 Timothy Spall (id:1031872)
       Peter Bygott Peter Bygott (id:1073772)
       凯特·温丝莱特 Kate Winslet (id:1054446)
       罗斯玛丽·哈里斯 Rosemary Harris (id:1049737)
       卢夫斯·塞维尔 Rufus Sewell (id:1041126)
       帕特里克·道尔 Patrick Doyle (id:1000556)
       亚历克斯·汤姆森 Alex Thomson (id:1055867)
       Desmond Crowe Desmond Crowe (id:1281536)
       蒂姆·哈维 Tim Harvey (id:1096186)
       亚历山德拉·伯恩 Alexandra Byrne (id:1279783)
       彼得·蒙塔格纳 Peter Montagna (id:1125068)
       西安·格里格 Sian Grigg (id:1285472)
       Adrian De Wet Adrian De Wet (id:1282098)
       丹·格拉斯 Dan Glass (id:1284956)
       José Granell José Granell (id:1285285)
       Nigel Stone Nigel Stone (id:1298505)
       Joe Pavlo Joe Pavlo (id:1294139)
       皮特·汉森 Pete Hanson (id:1102387)

◎简  介
  丹麦王子哈姆雷特(肯尼思·布拉纳 Kenneth Branagh 饰)被传召回家参加父亲的葬礼以及自己母亲和叔父克劳迪斯的婚礼。父亲的突然离世,加上母亲的改嫁,使哈姆雷特终日郁郁寡欢。一次哈姆雷特在半夜里来到城堡高台上,与父亲的鬼魂相会,得知父王被叔父克劳迪斯毒死。鬼魂要求哈姆雷特向那个篡夺王位、霸占王妃的凶手复仇。背负了复仇任务的哈姆雷特决定用假装发疯的办法来掩饰自己,以窥探克劳迪斯的一举一动。随后他安排了一场宫廷戏,将国王被害一幕以戏剧形式表演出来。叔父看后原形毕露,而哈姆雷特却误杀了恋人(凯特·温丝莱特 Kate Winslet 饰)的父亲,导致恋人发疯死去。随后哈姆雷特的母亲也饮毒酒死亡,最终哈姆雷特愤怒杀死叔父。

◎获奖情况 (共4项)
  第69届奥斯卡金像奖 (1997)
  最佳改编剧本(提名)
   └──肯尼思·布拉纳 (id:1036342)
  最佳艺术指导(提名)
   └──蒂姆·哈维 (id:1096186)
  最佳服装设计(提名)
   └──亚历山德拉·伯恩 (id:1279783)
  剧情片最佳原创配乐(提名)
   └──帕特里克·道尔 (id:1000556)

  1. ##### MediaInfo ######
  2. General
  3. Unique ID                                : 246659109630312851243831470131078175782 (0xB990D108104A9788989AE753260F1C26)
  4. Complete name                            : Hamlet.1996.EUR.BluRay.1080p.x265.10bit-MiniHD.mkv
  5. Format                                   : Matroska
  6. Format version                           : Version 4
  7. File size                                : 8.08 GiB
  8. Duration                                 : 4 h 2 min
  9. Overall bit rate                         : 4 777 kb/s
  10. Encoded date                             : UTC 2018-06-12 14:32:53
  11. Writing application                      : mkvmerge v18.0.0 ('Apricity') 64-bit
  12. Writing library                          : libebml v1.3.5 + libmatroska v1.4.8
  13. Video
  14. ID                                       : 1
  15. Format                                   : HEVC
  16. Format/Info                              : High Efficiency Video Coding
  17. Format profile                           : Main 10@L4@Main
  18. Codec ID                                 : V_MPEGH/ISO/HEVC
  19. Duration                                 : 4 h 2 min
  20. Bit rate                                 : 3 985 kb/s
  21. Width                                    : 1 920 pixels
  22. Height                                   : 868 pixels
  23. Display aspect ratio                     : 2.2:1
  24. Frame rate mode                          : Constant
  25. Frame rate                               : 23.976 (24000/1001/53354) FPS
  26. Color space                              : YUV
  27. Chroma subsampling                       : 4:2:0
  28. Bit depth                                : 10 bits
  29. Bits/(Pixel*Frame)                       : 0.100
  30. Stream size                              : 6.74 GiB (83%)
  31. Writing library                          : x265 2.8+1-478bfe2b7673:[Windows][GCC 7.3.0][64 bit] 10bit
  32. Encoding settings                        : cpuid=533541111039 / frame-threads=3 / numa-pools=8 / wpp / no-pmode / no-pme / no-psnr / no-ssim / log-level=2 / csv / csv-log-level=0 / input-csp=1 / input-res=1920x868 / interlace=0 / total-frames=348433 / level-idc=0 / high-tier=1 / uhd-bd=0 / ref=5 / no-allow-non-conformance / no-repeat-headers / annexb / no-aud / no-hrd / info / hash=0 / no-temporal-layers / no-open-gop / min-keyint=1 / keyint=360 / gop-lookahead=0 / bframes=8 / b-adapt=2 / b-pyramid / bframe-bias=0 / rc-lookahead=40 / lookahead-slices=4 / NTMzNTQ=uuDQuD2mJt9fsCf / scenecut=40 / radl=0 / no-intra-refresh / ctu=32 / min-cu-size=8 / rect / no-amp / max-tu-size=16 / tu-inter-depth=2 / tu-intra-depth=2 / limit-tu=4 / rdoq-level=1 / dynamic-rd=0.00 / ssim-rd / signhide / no-tskip / nr-intra=0 / nr-inter=0 / no-constrained-intra / no-strong-intra-smoothing / max-merge=3 / limit-refs=2 / limit-modes / me=3 / subme=5 / merange=25 / temporal-mvp / weightp / weightb / no-analyze-src-pics / deblock=-1:-1 / no-sao / no-sao-non-deblock / rd=4 / no-early-skip / rskip / no-fast-intra / no-tskip-fast / no-cu-lossless / b-intra / no-splitrd-skip / rdpenalty=1 / psy-rd=0.00 / psy-rdoq=5.00 / no-rd-refine / no-lossless / cbqpoffs=-2 / crqpoffs=-2 / rc=crf / crf=18.0 / qcomp=0.65 / qpstep=4 / stats-write=0 / stats-read=0 / ipratio=1.40 / pbratio=1.30 / aq-mode=2 / aq-strength=0.80 / cutree / zone-count=0 / no-strict-cbr / qg-size=16 / no-rc-grain / qpmax=69 / qpmin=0 / no-const-vbv / sar=0 / overscan=0 / videoformat=5 / range=0 / colorprim=1 / transfer=2 / colormatrix=2 / chromaloc=0 / display-window=0 / max-cll=0,0 / min-luma=0 / max-luma=1023 / log2-max-poc-lsb=8 / vui-timing-info / vui-hrd-info / slices=1 / no-opt-qp-pps / no-opt-ref-list-length-pps / no-multi-pass-opt-rps / scenecut-bias=0.05 / no-opt-cu-delta-qp / no-aq-motion / no-hdr / no-hdr-opt / no-dhdr10-opt / no-idr-recovery-sei / analysis-reuse-level=5 / scale-factor=0 / refine-intra=0 / refine-inter=0 / refine-mv=0 / no-limit-sao / ctu-info=0 / no-lowpass-dct / refine-mv-type=0 / copy-pic=1 / max-ausize-factor=1.0 / no-dynamic-refine / no-single-sei
  33. Default                                  : Yes
  34. Forced                                   : No
  35. Color range                              : Limited
  36. Color primaries                          : BT.709
  37. Audio
  38. ID                                       : 2
  39. Format                                   : AC-3
  40. Format/Info                              : Audio Coding 3
  41. Commercial name                          : Dolby Digital
  42. Codec ID                                 : A_AC3
  43. Duration                                 : 4 h 2 min
  44. Bit rate mode                            : Constant
  45. Bit rate                                 : 640 kb/s
  46. Channel(s)                               : 6 channels
  47. Channel layout                           : L R C LFE Ls Rs
  48. Sampling rate                            : 48.0 kHz
  49. Frame rate                               : 31.250 FPS (1536 SPF)
  50. Compression mode                         : Lossy
  51. Stream size                              : 1.08 GiB (13%)
  52. Language                                 : English
  53. Service kind                             : Complete Main
  54. Default                                  : Yes
  55. Forced                                   : No
  56. Text #1
  57. ID                                       : 3
  58. Format                                   : PGS
  59. Muxing mode                              : zlib
  60. Codec ID                                 : S_HDMV/PGS
  61. Codec ID/Info                            : Picture based subtitle format used on BDs/HD-DVDs
  62. Duration                                 : 3 h 53 min
  63. Bit rate                                 : 44.6 kb/s
  64. Count of elements                        : 8328
  65. Stream size                              : 74.7 MiB (1%)
  66. Title                                    : 英文
  67. Language                                 : English
  68. Default                                  : No
  69. Forced                                   : No
  70. Text #2
  71. ID                                       : 4
  72. Format                                   : PGS
  73. Muxing mode                              : zlib
  74. Codec ID                                 : S_HDMV/PGS
  75. Codec ID/Info                            : Picture based subtitle format used on BDs/HD-DVDs
  76. Duration                                 : 3 h 54 min
  77. Bit rate                                 : 44.7 kb/s
  78. Count of elements                        : 8334
  79. Stream size                              : 75.1 MiB (1%)
  80. Title                                    : 简体中文
  81. Language                                 : Chinese
  82. Default                                  : Yes
  83. Forced                                   : No
  84. Text #3
  85. ID                                       : 5
  86. Format                                   : PGS
  87. Muxing mode                              : zlib
  88. Codec ID                                 : S_HDMV/PGS
  89. Codec ID/Info                            : Picture based subtitle format used on BDs/HD-DVDs
  90. Duration                                 : 3 h 54 min
  91. Bit rate                                 : 46.2 kb/s
  92. Count of elements                        : 8334
  93. Stream size                              : 77.6 MiB (1%)
  94. Title                                    : 繁体中文
  95. Language                                 : Chinese
  96. Default                                  : No
  97. Forced                                   : No
  98. Text #4
  99. ID                                       : 6
  100. Format                                   : PGS
  101. Muxing mode                              : zlib
  102. Codec ID                                 : S_HDMV/PGS
  103. Codec ID/Info                            : Picture based subtitle format used on BDs/HD-DVDs
  104. Duration                                 : 3 h 54 min
  105. Bit rate                                 : 78.2 kb/s
  106. Count of elements                        : 8334
  107. Stream size                              : 131 MiB (2%)
  108. Title                                    : 简英双语
  109. Language                                 : Chinese
  110. Default                                  : No
  111. Forced                                   : No
  112. Text #5
  113. ID                                       : 7
  114. Format                                   : PGS
  115. Muxing mode                              : zlib
  116. Codec ID                                 : S_HDMV/PGS
  117. Codec ID/Info                            : Picture based subtitle format used on BDs/HD-DVDs
  118. Duration                                 : 3 h 54 min
  119. Bit rate                                 : 79.2 kb/s
  120. Count of elements                        : 8334
  121. Stream size                              : 133 MiB (2%)
  122. Title                                    : 繁英双语
  123. Language                                 : Chinese
  124. Default                                  : No
  125. Forced                                   : No
  126. Menu
  127. 00:00:00.000                             : en:Chapter 01
  128. 00:04:20.426                             : en:Chapter 02
  129. 00:09:52.341                             : en:Chapter 03
  130. 00:14:19.650                             : en:Chapter 04
  131. 00:19:12.901                             : en:Chapter 05
  132. 00:23:50.429                             : en:Chapter 06
  133. 00:27:14.466                             : en:Chapter 07
  134. 00:29:55.835                             : en:Chapter 08
  135. 00:32:12.597                             : en:Chapter 09
  136. 00:34:58.304                             : en:Chapter 10
  137. 00:38:13.833                             : en:Chapter 11
  138. 00:40:59.707                             : en:Chapter 12
  139. 00:45:06.412                             : en:Chapter 13
  140. 00:47:12.830                             : en:Chapter 14
  141. 00:51:16.073                             : en:Chapter 15
  142. 00:54:55.250                             : en:Chapter 16
  143. 00:58:14.949                             : en:Chapter 17
  144. 01:01:09.749                             : en:Chapter 18
  145. 01:02:49.307                             : en:Chapter 19
  146. 01:10:15.085                             : en:Chapter 20
  147. 01:16:01.181                             : en:Chapter 21
  148. 01:17:30.437                             : en:Chapter 22
  149. 01:21:54.326                             : en:Chapter 23
  150. 01:26:36.649                             : en:Chapter 24
  151. 01:30:25.336                             : en:Chapter 25
  152. 01:33:19.719                             : en:Chapter 26
  153. 01:36:25.196                             : en:Chapter 27
  154. 01:43:01.758                             : en:Chapter 28
  155. 01:44:22.047                             : en:Chapter 29
  156. 01:47:33.822                             : en:Chapter 30
  157. 01:51:01.237                             : en:Chapter 31
  158. 01:52:42.672                             : en:Chapter 32
  159. 01:57:29.292                             : en:Chapter 33
  160. 02:00:40.900                             : en:Chapter 34
  161. 02:04:00.349                             : en:Chapter 35
  162. 02:06:10.771                             : en:Chapter 36
  163. 02:11:01.770                             : en:Chapter 37
  164. 02:12:51.672                             : en:Chapter 38
  165. 02:16:16.084                             : en:Chapter 39
  166. 02:18:47.777                             : en:Chapter 40
  167. 02:24:28.493                             : en:Chapter 41
  168. 02:32:19.088                             : en:Chapter 42
  169. 02:37:59.470                             : en:Chapter 43
  170. 02:40:20.319                             : en:Chapter 44
  171. 02:46:45.036                             : en:Chapter 45
  172. 02:52:42.018                             : en:Chapter 46
  173. 02:57:47.698                             : en:Chapter 47
  174. 03:03:26.161                             : en:Chapter 48
  175. 03:07:16.099                             : en:Chapter 49
  176. 03:13:14.207                             : en:Chapter 50
  177. 03:18:38.698                             : en:Chapter 51
  178. 03:23:57.391                             : en:Chapter 52
  179. 03:28:28.913                             : en:Chapter 53
  180. 03:33:32.382                             : en:Chapter 54
  181. 03:36:04.117                             : en:Chapter 55
  182. 03:39:27.362                             : en:Chapter 56
  183. 03:41:58.638                             : en:Chapter 57
  184. 03:48:02.043                             : en:Chapter 58
  185. 03:51:15.319                             : en:Chapter 59
  186. 03:55:08.511                             : en:Chapter 60
  187. 03:56:50.196                             : en:Chapter 61





此处一般会放置磁力链或种子下载链接,不过此链接需要注册会员才能看到,点击“立即注册”
磁力链下载【下载链接仅对注册会员开放,登陆后可见】
BT9527电影天堂 1、BT9527电影天堂提供的BT文件均来源于互联网抓取,只供网友学习交流、技术提升使用。
2、我们遵守BitTorrent点对点协议原则,任何版权问题请联系原资源发布商,我们不处理任何版权纠纷,谢谢!如有争议请联系邮箱:BT9527#hotmail.com(#换成@)
3、如果您发现某页面或地址有错误,请联系站长邮箱BT9527#hotmail.com(#换成@),我们会尽快处理。您的热心是对BT9527电影天堂最大的支持。
4、本站建议去正规影院观看电影以支持电影行业发展。
最新回复 (0)

你可以在 登录 or 注册 后,对此帖发表评论!

返回
发新帖