坠入[简繁英字幕].The.Fall.2006.BluRay.1080p.x265.10bit-MiniHD 5.33GB

版主小s 5月前 252

✔资源类型:暂未分类   ✔电影年份:2006   ✔电影地区:欧美   ✔电影分类:剧情

◎译  名 坠入 / 坠落 / 魔幻旅程 / 墜落天使 / 落下的国王
◎片  名 The Fall
◎年  代 2006
◎产  地 美国 / 南非 / 印度
◎类  别 剧情 / 喜剧 / 奇幻 / 冒险
◎语  言 英语 / 罗马尼亚语 / 拉丁语
◎上映日期 2006-09-09(多伦多电影节) / 2008-05-30(美国)
◎IMDb链接 https://www.imdb.com/title/tt0460791/
◎豆瓣评分 8.8/10 (108961人评价)
◎豆瓣链接 https://movie.douban.com/subject/1890572/
◎片  长 117分钟
◎导  演 塔西姆·辛 Tarsem Singh (id:1018044)
◎编  剧 丹·吉尔罗伊 Dan Gilroy (id:1009561)
       Nico Soultanakis Nico Soultanakis (id:1361506)
       塔西姆·辛 Tarsem Singh (id:1018044)
◎演  员 凯婷卡·安塔鲁 Catinca Untaru (id:1000268)
       贾斯蒂恩·瓦戴尔 Justine Waddell (id:1040636)
       李·佩斯 Lee Pace (id:1018975)
       Kim Uylenbroek Kim Uylenbroek (id:1361498)
       Aiden Lithgow Aiden Lithgow (id:1361499)
       肖恩·吉尔德 Sean Gilder (id:1099660)
       Ronald France Ronald France (id:1085329)
       Andrew Roussouw Andrew Roussouw (id:1361500)
       Michael Huff Michael Huff (id:1361501)
       格兰特·斯旺比 Grant Swanby (id:1152794)
       埃米尔奥斯迪那 Emil Hostina (id:1361502)
       罗宾·史密斯 Robin Smith (id:1361503)
       Jeetu Verma Jeetu Verma (id:1361504)
       里奥·比尔 Leo Bill (id:1189147)
       Marcus Wesley Marcus Wesley (id:1361505)
       Camilla Waldman Camilla Waldman (id:1361904)
       大卫·芬奇 David Fincher (id:1012521)
       丹尼尔·卡尔塔吉罗内 Daniel Caltagirone (id:1361213)
       乔恩·凯曼 Jon Kamen (id:1288060)
       朱利安·布里奇 Julian Bleach (id:1319101)
       Elvira Deatcu Elvira Deatcu (id:1083929)
       斯派克·琼斯 Spike Jonze (id:1027831)
       科林·沃特金森 Colin Watkinson (id:1300500)
       石冈瑛子 Eiko Ishioka (id:1009937)
       康纳·奥沙利文 Conor O'Sullivan (id:1293444)
       Robert Trenton Robert Trenton (id:1308995)

◎简  介
  电影特技演员罗伊?沃克(Lee Pace 饰)在拍摄一组骑马从桥上一跃而下的镜头时严重受伤,导致下半身瘫痪失去知觉。此时的他极度绝望,万念俱灰,只想一死了之。正当罗伊沮丧之际,因摔断胳膊住进医院的5岁小女孩亚历珊卓(Catinca Untaru 饰)闯入了罗伊的世界。                                    
                                这两个年龄悬殊的病友就此交上了朋友,亚历珊卓每天来罗伊的病房报到,只为听朋友讲那个玄幻神奇的故事。而罗伊用这个顺口编出的故事吸引小女孩,却想完成借机完成他的自杀计划……                                    
                                本片荣获2007年柏林影展玻璃熊特别表扬-最佳影片奖、Sitges - Catalonian International Film Festival的最佳影片奖、2008年奥斯汀影评人协会奖最佳剧本。
  1. ##### MediaInfo ######
  2. General
  3. Unique ID                                : 191090566558434863408808692546182131908 (0x8FC2B455081F417B7937ABEC727130C4)
  4. Complete name                            : The.Fall.2006.BluRay.1080p.x265.10bit-MiniHD.mkv
  5. Format                                   : Matroska
  6. Format version                           : Version 4
  7. File size                                : 5.33 GiB
  8. Duration                                 : 1 h 57 min
  9. Overall bit rate                         : 6 513 kb/s
  10. Encoded date                             : UTC 2018-02-06 01:29:17
  11. Writing application                      : mkvmerge v20.0.0 ('I Am The Sun') 64-bit
  12. Writing library                          : libebml v1.3.5 + libmatroska v1.4.8
  13. Video
  14. ID                                       : 1
  15. Format                                   : HEVC
  16. Format/Info                              : High Efficiency Video Coding
  17. Format profile                           : Main 10@L4@High
  18. Codec ID                                 : V_MPEGH/ISO/HEVC
  19. Duration                                 : 1 h 57 min
  20. Bit rate                                 : 5 812 kb/s
  21. Width                                    : 1 920 pixels
  22. Height                                   : 1 044 pixels
  23. Display aspect ratio                     : 1.85:1
  24. Frame rate mode                          : Constant
  25. Frame rate                               : 23.976 (24000/1001/53354) FPS
  26. Color space                              : YUV
  27. Chroma subsampling                       : 4:2:0
  28. Bit depth                                : 10 bits
  29. Bits/(Pixel*Frame)                       : 0.121
  30. Stream size                              : 4.75 GiB (89%)
  31. Title                                    : 视频
  32. Default                                  : Yes
  33. Forced                                   : No
  34. Color range                              : Limited
  35. Color primaries                          : BT.709
  36. Audio
  37. ID                                       : 2
  38. Format                                   : AC-3
  39. Format/Info                              : Audio Coding 3
  40. Commercial name                          : Dolby Digital
  41. Codec ID                                 : A_AC3
  42. Duration                                 : 1 h 57 min
  43. Bit rate mode                            : Constant
  44. Bit rate                                 : 640 kb/s
  45. Channel(s)                               : 6 channels
  46. Channel layout                           : L R C LFE Ls Rs
  47. Sampling rate                            : 48.0 kHz
  48. Frame rate                               : 31.250 FPS (1536 SPF)
  49. Compression mode                         : Lossy
  50. Stream size                              : 536 MiB (10%)
  51. Title                                    : 英语ac3-5.1@640kbps
  52. Language                                 : English
  53. Service kind                             : Complete Main
  54. Default                                  : Yes
  55. Forced                                   : No
  56. Text #1
  57. ID                                       : 3
  58. Format                                   : PGS
  59. Muxing mode                              : zlib
  60. Codec ID                                 : S_HDMV/PGS
  61. Codec ID/Info                            : Picture based subtitle format used on BDs/HD-DVDs
  62. Duration                                 : 1 h 50 min
  63. Bit rate                                 : 32.1 kb/s
  64. Count of elements                        : 1819
  65. Stream size                              : 25.5 MiB (0%)
  66. Title                                    : 简英双语
  67. Default                                  : No
  68. Forced                                   : No
  69. Text #2
  70. ID                                       : 4
  71. Format                                   : PGS
  72. Muxing mode                              : zlib
  73. Codec ID                                 : S_HDMV/PGS
  74. Codec ID/Info                            : Picture based subtitle format used on BDs/HD-DVDs
  75. Duration                                 : 1 h 50 min
  76. Bit rate                                 : 32.7 kb/s
  77. Count of elements                        : 1819
  78. Stream size                              : 25.9 MiB (0%)
  79. Title                                    : 繁英双语
  80. Default                                  : No
  81. Forced                                   : No
  82. Text #3
  83. ID                                       : 5
  84. Format                                   : PGS
  85. Muxing mode                              : zlib
  86. Codec ID                                 : S_HDMV/PGS
  87. Codec ID/Info                            : Picture based subtitle format used on BDs/HD-DVDs
  88. Duration                                 : 1 h 50 min
  89. Bit rate                                 : 15.7 kb/s
  90. Count of elements                        : 1819
  91. Stream size                              : 12.4 MiB (0%)
  92. Title                                    : 简中
  93. Language                                 : Chinese
  94. Default                                  : Yes
  95. Forced                                   : No
  96. Text #4
  97. ID                                       : 6
  98. Format                                   : PGS
  99. Muxing mode                              : zlib
  100. Codec ID                                 : S_HDMV/PGS
  101. Codec ID/Info                            : Picture based subtitle format used on BDs/HD-DVDs
  102. Duration                                 : 1 h 50 min
  103. Bit rate                                 : 16.3 kb/s
  104. Count of elements                        : 1819
  105. Stream size                              : 12.9 MiB (0%)
  106. Title                                    : 繁中
  107. Language                                 : Chinese
  108. Default                                  : No
  109. Forced                                   : No
  110. Text #5
  111. ID                                       : 7
  112. Format                                   : PGS
  113. Muxing mode                              : zlib
  114. Codec ID                                 : S_HDMV/PGS
  115. Codec ID/Info                            : Picture based subtitle format used on BDs/HD-DVDs
  116. Duration                                 : 1 h 47 min
  117. Bit rate                                 : 20.5 kb/s
  118. Count of elements                        : 1815
  119. Stream size                              : 15.7 MiB (0%)
  120. Title                                    : 英语
  121. Language                                 : English
  122. Default                                  : No
  123. Forced                                   : No
  124. Menu
  125. 00:00:00.000                             : en:Chapter 01
  126. 00:05:48.473                             : en:Chapter 02
  127. 00:13:46.115                             : en:Chapter 03
  128. 00:23:50.720                             : en:Chapter 04
  129. 00:28:47.642                             : en:Chapter 05
  130. 00:34:29.483                             : en:Chapter 06
  131. 00:41:55.554                             : en:Chapter 07
  132. 00:51:59.365                             : en:Chapter 08
  133. 00:57:37.454                             : en:Chapter 09
  134. 01:04:52.429                             : en:Chapter 10
  135. 01:10:09.329                             : en:Chapter 11
  136. 01:15:44.247                             : en:Chapter 12
  137. 01:26:13.333                             : en:Chapter 13
  138. 01:33:28.019                             : en:Chapter 14
  139. 01:40:11.171                             : en:Chapter 15
  140. 01:48:31.837                             : en:Chapter 16





此处一般会放置磁力链或种子下载链接,不过此链接需要注册会员才能看到,点击“立即注册”
磁力链下载【下载链接仅对注册会员开放,登陆后可见】
BT9527电影天堂 1、BT9527电影天堂提供的BT文件均来源于互联网抓取,只供网友学习交流、技术提升使用。
2、我们遵守BitTorrent点对点协议原则,任何版权问题请联系原资源发布商,我们不处理任何版权纠纷,谢谢!如有争议请联系邮箱:BT9527#hotmail.com(#换成@)
3、如果您发现某页面或地址有错误,请联系站长邮箱BT9527#hotmail.com(#换成@),我们会尽快处理。您的热心是对BT9527电影天堂最大的支持。
4、本站建议去正规影院观看电影以支持电影行业发展。
最新回复 (0)

你可以在 登录 or 注册 后,对此帖发表评论!

返回
发新帖