大侦探福尔摩斯[国英多音轨/简繁特效字幕].Sherlock.Holmes.2009.BluRay.1080p.x265.10bit.2Audio-MiniHD 9.71GB

版主小s 5月前 176

✔资源类型:暂未分类   ✔电影年份:2009   ✔电影地区:欧美   ✔电影分类:动作

◎译  名 大侦探福尔摩斯 / 神探福尔摩斯(港) / 福尔摩斯(台) / 福尔摩斯和华生
◎片  名 Sherlock Holmes
◎年  代 2009
◎产  地 美国 / 德国
◎类  别 动作 / 悬疑 / 犯罪
◎语  言 英语 / 法语
◎上映日期 2010-02-25(中国大陆) / 2009-12-25(美国)
◎IMDb链接 https://www.imdb.com/title/tt0988045/
◎豆瓣评分 7.7/10 (298407人评价)
◎豆瓣链接 https://movie.douban.com/subject/2998270/
◎片  长 128分钟
◎导  演 盖·里奇 Guy Ritchie (id:1025148)
◎编  剧 迈克尔·罗伯特·约翰逊 Michael Robert Johnson (id:1324569)
       安东尼·佩卡姆 Anthony Peckham (id:1302627)
       西蒙·金伯格 Simon Kinberg (id:1022982)
       莱昂内尔·威格拉姆 Lionel Wigram (id:1300891)
◎演  员 小罗伯特·唐尼 Robert Downey Jr. (id:1016681)
       裘德·洛 Jude Law (id:1010510)
       瑞秋·麦克亚当斯 Rachel McAdams (id:1053587)
       马克·斯特朗 Mark Strong (id:1274374)
       埃迪·马森 Eddie Marsan (id:1291072)
       罗伯特·梅耶 Robert Maillet (id:1040613)
       杰拉丁妮·詹姆斯 Geraldine James (id:1010653)
       凯利·蕾莉 Kelly Reilly (id:1009283)
       威廉·休斯顿 William Houston (id:1100629)
       汉斯·麦瑟逊 Hans Matheson (id:1022695)
       詹姆斯·福克斯 James Fox (id:1080877)
       威廉·霍普 William Hope (id:1323341)
       克里夫·罗素 Clive Russell (id:1036706)
       凯·迪斯卡拉 Ky Discala (id:1467423)
       汤姆·瓦特 Tom Watt (id:1167551)
       布罗娜·加拉赫 Bronagh Gallagher (id:1284418)
       杰佛逊·豪尔 Jefferson Hall (id:1343261)
       迈尔斯·贾普 Miles Jupp (id:1206271)
       马恩·戴维斯 Marn Davies (id:1405637)
       奈德·丹内利 Ned Dennehy (id:1326563)
       詹姆斯·格林尼 James Greene (id:1101177)
       本·卡特赖特 Ben Cartwright (id:1327008)
       迈克尔·吉恩 Michael Jenn (id:1341837)
       盖·威廉姆斯 Guy Williams (id:1438254)
       彼得·迈尔斯 Peter Miles (id:1292048)
       Andrew Goldfarb Andrew Goldfarb (id:1227856)
        Thomas Kadman (id:1227907)
       Brendan McCoy Brendan McCoy (id:1226537)
       罗可·里奇 Rocco Ritchie (id:1023178)
       James A. Stephens James A. Stephens (id:1298376)
       苏珊·唐尼 Susan Downey (id:1040608)
       莱昂内尔·威格拉姆 Lionel Wigram (id:1300891)
       Steve Clark-Hall Steve Clark-Hall (id:1280858)
       汉斯·季默 Hans Zimmer (id:1054386)
       莎拉·格林伍德 Sarah Greenwood (id:1285412)
       凯蒂·斯宾塞 Katie Spencer (id:1298142)
       尼克·戈特沙尔克 Nick Gottschalk (id:1301976)
       马修·格雷 Matthew Gray (id:1285335)
       James Foster James Foster (id:1284030)
       尼尔·莫罗尼 Niall Moroney (id:1292529)
       珍妮·碧万 Jenny Beavan (id:1278169)
       克里斯汀·布伦戴尔 Christine Blundell (id:1278844)
       保罗·詹宁斯 Paul Jennings (id:1287680)
       乔纳森·福克纳尔 Jonathan Fawkner (id:1302174)
       Gurel Mehmet Gurel Mehmet (id:1307948)
       洛朗·乌格尼奥 Laurent Hugueniot (id:1302532)
       安吉拉·巴松 Angela Barson (id:1278010)
       Sean Samuels Sean Samuels (id:1305394)
       Daniel Barrow Daniel Barrow (id:1303565)
       Kate Windibank Kate Windibank (id:1301071)
       杰森·霍尔利 Jason Horley (id:1286921)
       Alex Cumming Alex Cumming (id:1310498)
       大卫·维克里 David Vickery (id:1312539)
       柴斯·贾瑞特 Chas Jarrett (id:1302757)
       Jan Adamczyk Jan Adamczyk (id:1310806)
       萨姆·奥斯伯恩 Sam Osborne (id:1310789)

◎简  介
  大侦探福尔摩斯(小罗伯特·唐尼 Robert Downer Jr. 饰)即使在置人于死地之时也异常的逻辑清晰,然而办案时有条不紊的他在私底下的生活中简直就是个“怪胎”,至少在他的助手华生医生(裘德·洛 Jude Law饰)眼中他是这样一个人。他们亲手绳之以法的“黑暗巫师”布莱克大人(马克·斯特朗 Mark Strong 饰)在临死前说死亡即是开始,随后艾琳·艾德勒(瑞秋·麦克亚当斯 Rachel McAdams 饰)出现在他的身边要他帮忙找个失踪的人,而她身边有个影子般可怕人物。坊间传说黑暗巫师已经复活,他的墓地遭到破坏,而躺在棺材里的人另有其人。又到了大侦探福尔摩斯出马的时候了,然而调查过程从一开始就险象环生,助手华生医生在调查中更是险些丧命,福尔摩斯也陷入连串的迷团之中。                                       
                                    本片根据著名同名漫画改编,作者莱昂纳尔·威格拉姆(Lionel Wigra...

◎获奖情况 (共7项)
  第82届奥斯卡金像奖 (2010)
  最佳艺术指导(提名)
  最佳原创配乐(提名)
   └──汉斯·季默 (id:1054386)

  第67届金球奖 (2010)
  电影类 音乐/喜剧片最佳男主角
   └──小罗伯特·唐尼 (id:1016681)

  第19届MTV电影奖 (2010)
  MTV电影奖 最佳打斗(提名)

  第12届美国青少年选择奖 (2010)
  最佳动作冒险电影
  最佳动作冒险电影男演员(提名)
   └──小罗伯特·唐尼 (id:1016681)
  最佳动作冒险电影女演员
   └──瑞秋·麦克亚当斯 (id:1053587)

  1. ##### MediaInfo ######
  2. General
  3. Unique ID                                : 179889003039409862433461078204364807682 (0x87555C9C6E7C81D8AB6F52E728BADE02)
  4. Complete name                            : Sherlock.Holmes.2009.BluRay.1080p.x265.10bit.2Audio-MiniHD.mkv
  5. Format                                   : Matroska
  6. Format version                           : Version 4
  7. File size                                : 9.71 GiB
  8. Duration                                 : 2 h 8 min
  9. Overall bit rate                         : 10.8 Mb/s
  10. Encoded date                             : UTC 2018-04-02 05:02:45
  11. Writing application                      : mkvmerge v16.0.0 ('Protest') 64-bit
  12. Writing library                          : libebml v1.3.5 + libmatroska v1.4.8
  13. Video
  14. ID                                       : 1
  15. Format                                   : HEVC
  16. Format/Info                              : High Efficiency Video Coding
  17. Format profile                           : Main 10@L4@Main
  18. Codec ID                                 : V_MPEGH/ISO/HEVC
  19. Duration                                 : 2 h 8 min
  20. Bit rate                                 : 9 656 kb/s
  21. Width                                    : 1 920 pixels
  22. Height                                   : 1 080 pixels
  23. Display aspect ratio                     : 16:9
  24. Frame rate mode                          : Constant
  25. Frame rate                               : 23.976 (24000/1001/53354) FPS
  26. Color space                              : YUV
  27. Chroma subsampling                       : 4:2:0
  28. Bit depth                                : 10 bits
  29. Bits/(Pixel*Frame)                       : 0.194
  30. Stream size                              : 8.66 GiB (89%)
  31. Writing library                          : x265 2.6:[Windows][GCC 4.9.2][64 bit] 10bit
  32. Encoding settings                        : cpuid=533541050111 / frame-threads=3 / wpp / no-pmode / no-pme / no-psnr / no-ssim / log-level=2 / input-csp=1 / input-res=1920x1080 / interlace=0 / total-frames=0 / level-idc=0 / high-tier=1 / uhd-bd=0 / ref=5 / no-allow-non-conformance / no-repeat-headers / annexb / no-aud / no-hrd / info / hash=0 / no-temporal-layers / no-open-gop / min-keyint=1 / keyint=360 / bframes=8 / b-adapt=2 / b-pyramid / bframe-bias=0 / rc-lookahead=60 / lookahead-slices=4 / NTMzNTQ=uuDQuD2mJt9fsCf / scenecut=40 / no-intra-refresh / ctu=32 / min-cu-size=8 / no-rect / no-amp / max-tu-size=16 / tu-inter-depth=2 / tu-intra-depth=2 / limit-tu=4 / rdoq-level=1 / dynamic-rd=0.00 / no-ssim-rd / signhide / tskip / nr-intra=0 / nr-inter=0 / no-constrained-intra / no-strong-intra-smoothing / max-merge=4 / limit-refs=2 / limit-modes / me=3 / subme=5 / merange=25 / no-temporal-mvp / weightp / weightb / no-analyze-src-pics / deblock=-1:-1 / no-sao / no-sao-non-deblock / rd=4 / no-early-skip / rskip / no-fast-intra / no-tskip-fast / no-cu-lossless / b-intra / no-splitrd-skip / rdpenalty=0 / psy-rd=2.00 / psy-rdoq=4.00 / no-rd-refine / analysis-reuse-mode=0 / no-lossless / cbqpoffs=-2 / crqpoffs=-2 / rc=crf / crf=21.0 / qcomp=0.70 / qpstep=4 / stats-write=0 / stats-read=0 / ipratio=1.40 / pbratio=1.30 / aq-mode=2 / aq-strength=0.80 / no-cutree / zone-count=0 / no-strict-cbr / qg-size=8 / no-rc-grain / qpmax=61 / qpmin=0 / no-const-vbv / sar=1 / overscan=0 / videoformat=5 / range=0 / colorprim=1 / transfer=2 / colormatrix=2 / chromaloc=0 / display-window=0 / max-cll=0,0 / min-luma=0 / max-luma=1023 / log2-max-poc-lsb=8 / vui-timing-info / vui-hrd-info / slices=1 / no-opt-qp-pps / no-opt-ref-list-length-pps / no-multi-pass-opt-rps / scenecut-bias=0.05 / no-opt-cu-delta-qp / no-aq-motion / no-hdr / no-hdr-opt / no-dhdr10-opt / analysis-reuse-level=5 / scale-factor=0 / refine-intra=0 / refine-inter=0 / refine-mv=0 / no-limit-sao / ctu-info=0 / no-lowpass-dct / refine-mv-type=0 / copy-pic=1
  33. Default                                  : Yes
  34. Forced                                   : No
  35. Color range                              : Limited
  36. Color primaries                          : BT.709
  37. Audio #1
  38. ID                                       : 2
  39. Format                                   : AC-3
  40. Format/Info                              : Audio Coding 3
  41. Commercial name                          : Dolby Digital
  42. Codec ID                                 : A_AC3
  43. Duration                                 : 2 h 8 min
  44. Bit rate mode                            : Constant
  45. Bit rate                                 : 640 kb/s
  46. Channel(s)                               : 6 channels
  47. Channel layout                           : L R C LFE Ls Rs
  48. Sampling rate                            : 48.0 kHz
  49. Frame rate                               : 31.250 FPS (1536 SPF)
  50. Compression mode                         : Lossy
  51. Stream size                              : 588 MiB (6%)
  52. Language                                 : English
  53. Service kind                             : Complete Main
  54. Default                                  : Yes
  55. Forced                                   : No
  56. Audio #2
  57. ID                                       : 3
  58. Format                                   : AAC LC
  59. Format/Info                              : Advanced Audio Codec Low Complexity
  60. Codec ID                                 : A_AAC-2
  61. Duration                                 : 2 h 8 min
  62. Bit rate                                 : 384 kb/s
  63. Channel(s)                               : 2 channels
  64. Channel layout                           : L R
  65. Sampling rate                            : 48.0 kHz
  66. Frame rate                               : 46.875 FPS (1024 SPF)
  67. Compression mode                         : Lossy
  68. Stream size                              : 353 MiB (4%)
  69. Title                                    : 国语
  70. Default                                  : No
  71. Forced                                   : No
  72. Text #1
  73. ID                                       : 4
  74. Format                                   : PGS
  75. Muxing mode                              : zlib
  76. Codec ID                                 : S_HDMV/PGS
  77. Codec ID/Info                            : Picture based subtitle format used on BDs/HD-DVDs
  78. Duration                                 : 2 h 2 min
  79. Bit rate                                 : 83.2 kb/s
  80. Count of elements                        : 3423
  81. Stream size                              : 72.9 MiB (1%)
  82. Title                                    : 特效简体中英
  83. Language                                 : Chinese
  84. Default                                  : Yes
  85. Forced                                   : No
  86. Text #2
  87. ID                                       : 5
  88. Format                                   : PGS
  89. Muxing mode                              : zlib
  90. Codec ID                                 : S_HDMV/PGS
  91. Codec ID/Info                            : Picture based subtitle format used on BDs/HD-DVDs
  92. Duration                                 : 2 h 2 min
  93. Bit rate                                 : 53.3 kb/s
  94. Count of elements                        : 3423
  95. Stream size                              : 46.7 MiB (0%)
  96. Title                                    : 特效简体中文
  97. Language                                 : Chinese
  98. Default                                  : No
  99. Forced                                   : No
  100. Text #3
  101. ID                                       : 6
  102. Format                                   : PGS
  103. Muxing mode                              : zlib
  104. Codec ID                                 : S_HDMV/PGS
  105. Codec ID/Info                            : Picture based subtitle format used on BDs/HD-DVDs
  106. Duration                                 : 2 h 2 min
  107. Bit rate                                 : 84.4 kb/s
  108. Count of elements                        : 3424
  109. Stream size                              : 74.0 MiB (1%)
  110. Title                                    : 特效繁体中英
  111. Language                                 : Chinese
  112. Default                                  : No
  113. Forced                                   : No
  114. Text #4
  115. ID                                       : 7
  116. Format                                   : PGS
  117. Muxing mode                              : zlib
  118. Codec ID                                 : S_HDMV/PGS
  119. Codec ID/Info                            : Picture based subtitle format used on BDs/HD-DVDs
  120. Duration                                 : 2 h 2 min
  121. Bit rate                                 : 54.1 kb/s
  122. Count of elements                        : 3423
  123. Stream size                              : 47.4 MiB (0%)
  124. Title                                    : 特效繁体中文
  125. Language                                 : Chinese
  126. Default                                  : No
  127. Forced                                   : No





此处一般会放置磁力链或种子下载链接,不过此链接需要注册会员才能看到,点击“立即注册”
磁力链下载【下载链接仅对注册会员开放,登陆后可见】
BT9527电影天堂 1、BT9527电影天堂提供的BT文件均来源于互联网抓取,只供网友学习交流、技术提升使用。
2、我们遵守BitTorrent点对点协议原则,任何版权问题请联系原资源发布商,我们不处理任何版权纠纷,谢谢!如有争议请联系邮箱:BT9527#hotmail.com(#换成@)
3、如果您发现某页面或地址有错误,请联系站长邮箱BT9527#hotmail.com(#换成@),我们会尽快处理。您的热心是对BT9527电影天堂最大的支持。
4、本站建议去正规影院观看电影以支持电影行业发展。
最新回复 (0)

你可以在 登录 or 注册 后,对此帖发表评论!

返回
发新帖