奇异博士2:疯狂多元宇宙[杜比视界版本][简繁英字幕].Doctor.Strange.in.the.Multiverse.of.Madness.2022.2160p.WEB-DL.DV.HEVC.Atmos.DDP5.1-OPT 22.00GB

版主小s 5月前 603

✔资源类型:BD-4K   ✔电影年份:2022   ✔电影地区:欧美   ✔电影分类:动作

◎标  题 奇异博士2:疯狂多元宇宙
◎译  名 奇异博士2 / 斯特兰奇博士2 / 奇异博士2:失控多重宇宙(港 / 台) / 奇异博士2: 失控多元宇宙(港) / Doctor Strange 2 / Doctor Strange: in the Multiverse of Madness
◎片  名 Doctor Strange in the Multiverse of Madness
◎年  代 2022
◎产  地 美国
◎类  别 动作 / 恐怖 / 奇幻 / 冒险
◎语  言 英语
◎上映日期 2022-05-04(中国台湾) / 2022-05-06(美国)
◎IMDb评分 7.3/10 (192714人评价)
◎IMDb链接 https://www.imdb.com/title/tt9419884/
◎豆瓣链接 https://movie.douban.com/subject/30304994/
◎片  长 126分钟
◎导  演 山姆·雷米 Sam Raimi
◎编  剧 迈克尔·沃尔德伦 Michael Waldron
       杰德·哈雷·巴特利特 Jade Halley Bartlett  
       史蒂夫·迪特寇 Steve Ditko
       斯坦·李 Stan Lee
◎演  员 本尼迪克特·康伯巴奇 Benedict Cumberbatch
       伊丽莎白·奥尔森 Elizabeth Olsen
       切瓦特·埃加福 Chiwetel Ejiofor
       本尼迪克特·王 Benedict Wong
       克索斯利尔·戈麦斯 Xochitl Gomez
       瑞秋·麦克亚当斯 Rachel McAdams
       迈克尔·斯图巴 Michael Stuhlbarg
       帕特里克·斯图尔特 Patrick Stewart
       海莉·阿特维尔 Hayley Atwell
       约翰·卡拉辛斯基 John Krasinski
       拉什纳·林奇 Lashana Lynch
       安松·蒙特 Anson Mount
       查理兹·塞隆 Charlize Theron
       希拉·阿蒂姆 Sheila Atim
       亚当·赫吉尔 Adam Hugill
       亚子·米切尔 Ako Mitchell
       杨沫沫 Momo Yeung
       丹尼尔·斯温 Daniel Swain
       多波·雷斯尼怀罗 Topo Wresniwiro
       伊登·纳森森 Eden Nathenson
       维尼·莫利 Vinny Moli
       大卫·谢 David Tse
       乔丹·亚历桑德拉 Jordan Alexandra
       迈克尔·沃尔德伦 Michael Waldron
       朱利安·希威德 Julian Hilliard
       杰特·克莱恩 Jett Klyne
       布鲁斯·坎贝尔 Bruce Campbell
       马里安·洛伦西克 Marian Lorencik
       凯文·费奇 Kevin Feige
       丹尼·艾夫曼 Danny Elfman
       格雷厄姆·丘彻亚德 Graham Churchyard

◎简  介
  充满无限未知的疯狂多元宇宙即将展开,一切皆有可能。
  1. ##### MediaInfo ######
  2. General
  3. Unique ID                                : 46397506806649386055113537142270222530 (0x22E7D5B3830982983F3AECF4A69060C2)
  4. Complete name                            : Doctor.Strange.in.the.Multiverse.of.Madness.2022.2160p.WEB-DL.DV.HEVC.Atmos.DDP5.1-OPT.mkv
  5. Format                                   : Matroska
  6. Format version                           : Version 4
  7. File size                                : 22.0 GiB
  8. Duration                                 : 2 h 6 min
  9. Overall bit rate                         : 24.9 Mb/s
  10. Movie name                               : Doctor Strange in the Multiverse of Madness
  11. Encoded date                             : UTC 2022-06-21 23:02:27
  12. Writing application                      : mkvmerge v61.0.0 ('So') 64-bit
  13. Writing library                          : libebml v1.4.2 + libmatroska v1.6.4
  14. Cover                                    : Yes
  15. Attachments                              : Cover.jpg
  16. Video
  17. ID                                       : 1
  18. Format                                   : HEVC
  19. Format/Info                              : High Efficiency Video Coding
  20. Format profile                           : Main 10@L5@High
  21. Codec ID                                 : V_MPEGH/ISO/HEVC
  22. Duration                                 : 2 h 6 min
  23. Bit rate                                 : 24.1 Mb/s
  24. Width                                    : 3 840 pixels
  25. Height                                   : 1 608 pixels
  26. Display aspect ratio                     : 2.40:1
  27. Frame rate mode                          : Constant
  28. Frame rate                               : 23.976 (24000/1001/53354) FPS
  29. Color space                              : YUV
  30. Chroma subsampling                       : 4:2:0
  31. Bit depth                                : 10 bits
  32. Bits/(Pixel*Frame)                       : 0.163
  33. Stream size                              : 21.3 GiB (97%)
  34. Language                                 : English
  35. Default                                  : Yes
  36. Forced                                   : No
  37. Audio
  38. ID                                       : 2
  39. Format                                   : E-AC-3 JOC
  40. Format/Info                              : Enhanced AC-3 with Joint Object Coding
  41. Commercial name                          : Dolby Digital Plus with Dolby Atmos
  42. Codec ID                                 : A_EAC3
  43. Duration                                 : 2 h 6 min
  44. Bit rate mode                            : Constant
  45. Bit rate                                 : 768 kb/s
  46. Channel(s)                               : 6 channels
  47. Channel layout                           : L R C LFE Ls Rs
  48. Sampling rate                            : 48.0 kHz
  49. Frame rate                               : 31.250 FPS (1536 SPF)
  50. Compression mode                         : Lossy
  51. Stream size                              : 695 MiB (3%)
  52. Language                                 : English
  53. Service kind                             : Complete Main
  54. Default                                  : Yes
  55. Forced                                   : No
  56. Complexity index                         : 16
  57. Number of dynamic objects                : 15
  58. Bed channel count                        : 1 channel
  59. Bed channel configuration                : LFE
  60. Text #1
  61. ID                                       : 3
  62. Format                                   : UTF-8
  63. Codec ID                                 : S_TEXT/UTF8
  64. Codec ID/Info                            : UTF-8 Plain Text
  65. Duration                                 : 25 min 8 s
  66. Bit rate                                 : 1 b/s
  67. Count of elements                        : 10
  68. Stream size                              : 265 Bytes (0%)
  69. Title                                    : Forced
  70. Language                                 : English
  71. Default                                  : Yes
  72. Forced                                   : Yes
  73. Text #2
  74. ID                                       : 4
  75. Format                                   : UTF-8
  76. Codec ID                                 : S_TEXT/UTF8
  77. Codec ID/Info                            : UTF-8 Plain Text
  78. Duration                                 : 2 h 5 min
  79. Bit rate                                 : 36 b/s
  80. Count of elements                        : 1249
  81. Stream size                              : 33.8 KiB (0%)
  82. Language                                 : English
  83. Default                                  : No
  84. Forced                                   : No
  85. Text #3
  86. ID                                       : 5
  87. Format                                   : UTF-8
  88. Codec ID                                 : S_TEXT/UTF8
  89. Codec ID/Info                            : UTF-8 Plain Text
  90. Duration                                 : 23 min 19 s
  91. Bit rate                                 : 60 b/s
  92. Count of elements                        : 425
  93. Stream size                              : 10.4 KiB (0%)
  94. Title                                    : SDH
  95. Language                                 : English
  96. Default                                  : No
  97. Forced                                   : No
  98. Text #4
  99. ID                                       : 6
  100. Format                                   : UTF-8
  101. Codec ID                                 : S_TEXT/UTF8
  102. Codec ID/Info                            : UTF-8 Plain Text
  103. Duration                                 : 2 h 5 min
  104. Bit rate                                 : 37 b/s
  105. Count of elements                        : 1252
  106. Stream size                              : 34.5 KiB (0%)
  107. Title                                    : Latin American
  108. Language                                 : Spanish
  109. Default                                  : No
  110. Forced                                   : No
  111. Text #5
  112. ID                                       : 7
  113. Format                                   : UTF-8
  114. Codec ID                                 : S_TEXT/UTF8
  115. Codec ID/Info                            : UTF-8 Plain Text
  116. Duration                                 : 2 h 5 min
  117. Bit rate                                 : 29 b/s
  118. Count of elements                        : 1272
  119. Stream size                              : 26.8 KiB (0%)
  120. Title                                    : 简体中字
  121. Language                                 : Chinese
  122. Default                                  : Yes
  123. Forced                                   : No
  124. Text #6
  125. ID                                       : 8
  126. Format                                   : UTF-8
  127. Codec ID                                 : S_TEXT/UTF8
  128. Codec ID/Info                            : UTF-8 Plain Text
  129. Duration                                 : 2 h 5 min
  130. Bit rate                                 : 29 b/s
  131. Count of elements                        : 1272
  132. Stream size                              : 26.8 KiB (0%)
  133. Title                                    : 繁体中字
  134. Language                                 : Chinese
  135. Default                                  : Yes
  136. Forced                                   : No
  137. Text #7
  138. ID                                       : 9
  139. Format                                   : ASS
  140. Codec ID                                 : S_TEXT/ASS
  141. Codec ID/Info                            : Advanced Sub Station Alpha
  142. Duration                                 : 2 h 5 min
  143. Bit rate                                 : 71 b/s
  144. Count of elements                        : 1272
  145. Compression mode                         : Lossless
  146. Stream size                              : 65.4 KiB (0%)
  147. Title                                    : 简体中字
  148. Language                                 : Chinese
  149. Default                                  : Yes
  150. Forced                                   : No
  151. Text #8
  152. ID                                       : 10
  153. Format                                   : ASS
  154. Codec ID                                 : S_TEXT/ASS
  155. Codec ID/Info                            : Advanced Sub Station Alpha
  156. Duration                                 : 2 h 5 min
  157. Bit rate                                 : 71 b/s
  158. Count of elements                        : 1272
  159. Compression mode                         : Lossless
  160. Stream size                              : 65.4 KiB (0%)
  161. Title                                    : 繁体中字
  162. Language                                 : Chinese
  163. Default                                  : Yes
  164. Forced                                   : No
  165. Menu
  166. 00:00:00.000                             : Chapter 01
  167. 00:03:51.398                             : Chapter 02
  168. 00:08:26.506                             : Chapter 03
  169. 00:14:19.442                             : Chapter 04
  170. 00:18:23.061                             : Chapter 05
  171. 00:24:37.602                             : Chapter 06
  172. 00:37:58.153                             : Chapter 07
  173. 00:47:15.502                             : Chapter 08
  174. 00:50:03.545                             : Chapter 09
  175. 00:55:51.059                             : Chapter 10
  176. 00:59:46.336                             : Chapter 11
  177. 01:02:19.656                             : Chapter 12
  178. 01:05:18.418                             : Chapter 13
  179. 01:07:20.790                             : Chapter 14
  180. 01:15:03.586                             : Chapter 15
  181. 01:17:01.871                             : Chapter 16
  182. 01:19:18.383                             : Chapter 17
  183. 01:23:29.342                             : Chapter 18
  184. 01:26:34.194                             : Chapter 19
  185. 01:28:51.206                             : Chapter 20
  186. 01:34:47.270                             : Chapter 21
  187. 01:37:38.650                             : Chapter 22
  188. 01:41:27.629                             : Chapter 23
  189. 01:51:03.288                             : Chapter 24
  190. 01:53:26.473                             : Chapter 25
  191. 01:55:38.855                             : Chapter 26
  192. 01:56:32.075                             : Chapter 27
  193. 01:58:48.378                             : Chapter 28
  194. 01:59:25.665                             : Chapter 29



此处一般会放置磁力链或种子下载链接,不过此链接需要注册会员才能看到,点击“立即注册”
磁力链下载【下载链接仅对注册会员开放,登陆后可见】
BT9527电影天堂 1、BT9527电影天堂提供的BT文件均来源于互联网抓取,只供网友学习交流、技术提升使用。
2、我们遵守BitTorrent点对点协议原则,任何版权问题请联系原资源发布商,我们不处理任何版权纠纷,谢谢!如有争议请联系邮箱:BT9527#hotmail.com(#换成@)
3、如果您发现某页面或地址有错误,请联系站长邮箱BT9527#hotmail.com(#换成@),我们会尽快处理。您的热心是对BT9527电影天堂最大的支持。
4、本站建议去正规影院观看电影以支持电影行业发展。
最新回复 (2)

你可以在 登录 or 注册 后,对此帖发表评论!

返回
发新帖