前任3:再见前任[国语音轨/中英字幕].The.Ex-File.3.Return.of.the.Exes.2017.BluRay.1080p.x265.10bit-MiniHD 4.50GB

版主小s 5月前 244

✔资源类型:暂未分类   ✔电影年份:2017   ✔电影地区:大陆   ✔电影分类:喜剧

◎译  名 前任3:再见前任 / 前任3 / 前任攻略3 / 前任3:颜值大作战 / The Ex-File: The Return of the Exes
◎年  代 2017
◎产  地 中国大陆
◎类  别 喜剧 / 爱情
◎语  言 汉语普通话
◎上映日期 2017-12-29(中国大陆)
◎IMDb链接 https://www.imdb.com/title/tt7830888/
◎豆瓣评分 5.6/10 (371659人评价)
◎豆瓣链接 https://movie.douban.com/subject/26662193/
◎片  长 120分钟
◎导  演 田羽生 Yusheng Tian (id:1332171)
◎编  剧 田羽生 Yusheng Tian (id:1332171)
       游非 Jia Chang (id:1372979)
       大宽 Da Kuan (id:1352304)
       大广 Da Guang (id:1385564)
◎演  员 韩庚 Han geng (id:1275667)
       郑恺 Kai Zheng (id:1275564)
       于文文 Kelly Yu (id:1342252)
       曾梦雪 Mengxue Zeng (id:1376370)
       罗米 Mi Luo (id:1365997)
       林乐炫 Lexuan Lin (id:1436352)
       叶可儿 Kiko (id:1440835)
       杨庭恺 Bernard Yang (id:1443208)
       邹沙沙 Aiken Zou Shasha (id:1392574)
       王中磊 Zhonglei Wang (id:1276037)
       冯提莫 Timo Feng (id:1388742)
       米昊易  (id:1439940)

◎简  介
  一对好基友孟云(韩庚 饰)和余飞(郑恺 饰)跟女友都因为一点小事宣告分手,并且“拒绝挽回,死不认错”。两人在夜店、派对与交友软件上放飞人生第二春,大肆庆祝“黄金单身期”,从而引发了一系列好笑的故事。孟云与女友同甘共苦却难逃“五年之痒”,余飞与女友则棋逢敌手相爱相杀无绝期。然而现实的“打脸”却来得猝不及防:一对推拉纠结零往来,一对纠缠互怼全交代。两对恋人都将面对最终的选择:是再次相见?还是再也不见?
  1. ##### MediaInfo ######
  2. General
  3. Unique ID                                : 186373341848959303084405364370760235022 (0x8C3633328F80FBD99BD75D0CA6F3780E)
  4. Complete name                            : The.Ex-File.3.Return.of.the.Exes.2017.BluRay.1080p.x265.10bit-MiniHD.mkv
  5. Format                                   : Matroska
  6. Format version                           : Version 4
  7. File size                                : 4.50 GiB
  8. Duration                                 : 1 h 59 min
  9. Overall bit rate                         : 5 393 kb/s
  10. Encoded date                             : UTC 2018-06-09 09:17:29
  11. Writing application                      : mkvmerge v18.0.0 ('Apricity') 64-bit
  12. Writing library                          : libebml v1.3.5 + libmatroska v1.4.8
  13. Video
  14. ID                                       : 1
  15. Format                                   : HEVC
  16. Format/Info                              : High Efficiency Video Coding
  17. Format profile                           : Main 10@L4@Main
  18. Codec ID                                 : V_MPEGH/ISO/HEVC
  19. Duration                                 : 1 h 59 min
  20. Bit rate                                 : 4 707 kb/s
  21. Width                                    : 1 920 pixels
  22. Height                                   : 804 pixels
  23. Display aspect ratio                     : 2.40:1
  24. Frame rate mode                          : Constant
  25. Frame rate                               : 24.000 FPS
  26. Color space                              : YUV
  27. Chroma subsampling                       : 4:2:0
  28. Bit depth                                : 10 bits
  29. Bits/(Pixel*Frame)                       : 0.127
  30. Stream size                              : 3.93 GiB (87%)
  31. Writing library                          : x265 2.8+1-478bfe2b7673:[Windows][GCC 7.3.0][64 bit] 10bit
  32. Encoding settings                        : cpuid=533541111039 / frame-threads=3 / numa-pools=8 / wpp / no-pmode / no-pme / no-psnr / no-ssim / log-level=2 / csv / csv-log-level=0 / input-csp=1 / input-res=1920x804 / interlace=0 / total-frames=172031 / level-idc=0 / high-tier=1 / uhd-bd=0 / ref=5 / no-allow-non-conformance / no-repeat-headers / annexb / no-aud / no-hrd / info / hash=0 / no-temporal-layers / no-open-gop / min-keyint=1 / keyint=360 / gop-lookahead=0 / bframes=8 / b-adapt=2 / b-pyramid / bframe-bias=0 / rc-lookahead=40 / lookahead-slices=4 / NTMzNTQ=uuDQuD2mJt9fsCf / scenecut=40 / radl=0 / no-intra-refresh / ctu=32 / min-cu-size=8 / rect / no-amp / max-tu-size=16 / tu-inter-depth=2 / tu-intra-depth=2 / limit-tu=4 / rdoq-level=1 / dynamic-rd=0.00 / ssim-rd / signhide / no-tskip / nr-intra=0 / nr-inter=0 / no-constrained-intra / no-strong-intra-smoothing / max-merge=3 / limit-refs=2 / limit-modes / me=3 / subme=5 / merange=25 / temporal-mvp / weightp / weightb / no-analyze-src-pics / deblock=-1:-1 / no-sao / no-sao-non-deblock / rd=4 / no-early-skip / rskip / no-fast-intra / no-tskip-fast / no-cu-lossless / b-intra / no-splitrd-skip / rdpenalty=1 / psy-rd=0.00 / psy-rdoq=5.00 / no-rd-refine / no-lossless / cbqpoffs=-2 / crqpoffs=-2 / rc=crf / crf=18.0 / qcomp=0.65 / qpstep=4 / stats-write=0 / stats-read=0 / ipratio=1.40 / pbratio=1.30 / aq-mode=2 / aq-strength=0.80 / cutree / zone-count=0 / no-strict-cbr / qg-size=16 / no-rc-grain / qpmax=69 / qpmin=0 / no-const-vbv / sar=0 / overscan=0 / videoformat=5 / range=0 / colorprim=1 / transfer=2 / colormatrix=2 / chromaloc=0 / display-window=0 / max-cll=0,0 / min-luma=0 / max-luma=1023 / log2-max-poc-lsb=8 / vui-timing-info / vui-hrd-info / slices=1 / no-opt-qp-pps / no-opt-ref-list-length-pps / no-multi-pass-opt-rps / scenecut-bias=0.05 / no-opt-cu-delta-qp / no-aq-motion / no-hdr / no-hdr-opt / no-dhdr10-opt / no-idr-recovery-sei / analysis-reuse-level=5 / scale-factor=0 / refine-intra=0 / refine-inter=0 / refine-mv=0 / no-limit-sao / ctu-info=0 / no-lowpass-dct / refine-mv-type=0 / copy-pic=1 / max-ausize-factor=1.0 / no-dynamic-refine / no-single-sei
  33. Default                                  : Yes
  34. Forced                                   : No
  35. Color range                              : Limited
  36. Color primaries                          : BT.709
  37. Audio
  38. ID                                       : 2
  39. Format                                   : AC-3
  40. Format/Info                              : Audio Coding 3
  41. Commercial name                          : Dolby Digital
  42. Codec ID                                 : A_AC3
  43. Duration                                 : 1 h 59 min
  44. Bit rate mode                            : Constant
  45. Bit rate                                 : 640 kb/s
  46. Channel(s)                               : 6 channels
  47. Channel layout                           : L R C LFE Ls Rs
  48. Sampling rate                            : 48.0 kHz
  49. Frame rate                               : 31.250 FPS (1536 SPF)
  50. Compression mode                         : Lossy
  51. Stream size                              : 547 MiB (12%)
  52. Language                                 : Chinese
  53. Service kind                             : Complete Main
  54. Default                                  : Yes
  55. Forced                                   : No
  56. Text #1
  57. ID                                       : 3
  58. Format                                   : PGS
  59. Muxing mode                              : zlib
  60. Codec ID                                 : S_HDMV/PGS
  61. Codec ID/Info                            : Picture based subtitle format used on BDs/HD-DVDs
  62. Duration                                 : 1 h 53 min
  63. Bit rate                                 : 35.1 kb/s
  64. Count of elements                        : 3924
  65. Stream size                              : 28.5 MiB (1%)
  66. Language                                 : Chinese
  67. Default                                  : Yes
  68. Forced                                   : No
  69. Text #2
  70. ID                                       : 4
  71. Format                                   : PGS
  72. Muxing mode                              : zlib
  73. Codec ID                                 : S_HDMV/PGS
  74. Codec ID/Info                            : Picture based subtitle format used on BDs/HD-DVDs
  75. Duration                                 : 1 h 52 min
  76. Bit rate                                 : 36.1 kb/s
  77. Count of elements                        : 3926
  78. Stream size                              : 29.2 MiB (1%)
  79. Language                                 : Chinese
  80. Default                                  : No
  81. Forced                                   : No
  82. Text #3
  83. ID                                       : 5
  84. Format                                   : PGS
  85. Muxing mode                              : zlib
  86. Codec ID                                 : S_HDMV/PGS
  87. Codec ID/Info                            : Picture based subtitle format used on BDs/HD-DVDs
  88. Duration                                 : 1 h 53 min
  89. Bit rate                                 : 47.0 kb/s
  90. Count of elements                        : 3940
  91. Stream size                              : 38.2 MiB (1%)
  92. Language                                 : English
  93. Default                                  : No
  94. Forced                                   : No
  95. Menu
  96. 00:00:00.000                             : en:Chapter 01
  97. 00:04:56.750                             : en:Chapter 02
  98. 00:10:58.750                             : en:Chapter 03
  99. 00:18:11.625                             : en:Chapter 04
  100. 00:24:00.291                             : en:Chapter 05
  101. 00:30:12.500                             : en:Chapter 06
  102. 00:36:23.833                             : en:Chapter 07
  103. 00:41:21.125                             : en:Chapter 08
  104. 00:46:02.541                             : en:Chapter 09
  105. 00:53:11.791                             : en:Chapter 10
  106. 00:58:44.166                             : en:Chapter 11
  107. 01:04:42.583                             : en:Chapter 12
  108. 01:10:42.208                             : en:Chapter 13
  109. 01:18:04.250                             : en:Chapter 14
  110. 01:23:07.291                             : en:Chapter 15
  111. 01:29:04.500                             : en:Chapter 16
  112. 01:37:13.958                             : en:Chapter 17
  113. 01:41:44.125                             : en:Chapter 18
  114. 01:47:33.875                             : en:Chapter 19
  115. 01:54:25.666                             : en:Chapter 20





此处一般会放置磁力链或种子下载链接,不过此链接需要注册会员才能看到,点击“立即注册”
磁力链下载【下载链接仅对注册会员开放,登陆后可见】
BT9527电影天堂 1、BT9527电影天堂提供的BT文件均来源于互联网抓取,只供网友学习交流、技术提升使用。
2、我们遵守BitTorrent点对点协议原则,任何版权问题请联系原资源发布商,我们不处理任何版权纠纷,谢谢!如有争议请联系邮箱:BT9527#hotmail.com(#换成@)
3、如果您发现某页面或地址有错误,请联系站长邮箱BT9527#hotmail.com(#换成@),我们会尽快处理。您的热心是对BT9527电影天堂最大的支持。
4、本站建议去正规影院观看电影以支持电影行业发展。
最新回复 (0)

你可以在 登录 or 注册 后,对此帖发表评论!

返回
发新帖