小鬼闯巴黎[中文字幕].Rugrats.In.Paris.The.Movie.2000.2160p.AMZN.WEB-DL.x265.10bit.HDR10Plus.DTS-HD.MA.TrueHD.5.1-NOGRP 10.91GB

版主小s 5月前 241

◎标 题 小鬼闯巴黎

◎译 名 罗格斯在巴黎 / 小淘气巴黎之旅 / 小鬼巴黎行 / 小混球巴黎历险记

◎片 名 Rugrats in Paris: The Movie

◎年 代 2000

◎产 地 美国 / 德国

◎类 别 喜剧 / 动画 / 家庭 / 冒险

◎语 言 英语

◎上映日期 2000-11-17

◎IMDb评分 6.1/10 (12513人评价)

◎IMDb链接 https://www.imdb.com/title/tt0213203/

◎豆瓣评分 6.8/10 (107人评价)

◎豆瓣链接 https://movie.douban.com/subject/1297701/

◎片 长 78 分钟

◎导 演 斯泰格·贝格基维斯特 Stig Bergqvist

Paul Demeyer Paul Demeyer

◎编 剧 戴维·N·韦斯 David N. Weiss

保罗·杰曼 Paul Germain

Arlene Klasky Arlene Klasky

嘉柏·丘波 Gabor Csupo

J·大卫·斯提姆 J. David Stem

Kate Boutilier Kate Boutilier

◎演 员 Paul Demeyer Paul Demeyer

比利·维斯特 Billy West

凯斯·索西 Kath Soucie

约翰·利思戈 John Lithgow

丹·卡斯泰兰尼塔 Dan Castellaneta

水源士郎 Tohoru Masamune

蒂姆·克里 Tim Curry

特蕾丝·麦克尼尔 Tress MacNeille

Shannon Stephens Shannon Stephens

克里·萨莫 Cree Summer

凯文·迈克尔·理查德森 Kevin Michael Richardson

查尔斯·阿德勒 Charles Adler

岩松信 Makoto Iwamatsu

Casey Kasem Casey Kasem

伊丽莎白·戴利 Elizabeth Daily

苏珊·萨兰登 Susan Sarandon

克里斯汀·凯文诺 Christine Cavanaugh

乔·阿拉斯奇 Joe Alaskey

迈克尔·贝尔 Michael Bell

谢丽尔·蔡斯 Cheryl Chase

梅拉妮·查托夫 Melanie Chartoff

塔拉·斯特朗 Tara Strong

Darrell Kunitomi Darrell Kunitomi

Goh Misawa Goh Misawa

菲尔·普洛克特 Phil Proctor

杰克·雷利 Jack Riley

黛比·雷诺斯 Debbie Reynolds

诺顿·维基 Norton Virgien

Eryk Casemiro Eryk Casemiro

Arlene Klasky Arlene Klasky

嘉柏·丘波 Gabor Csupo

马克·马瑟斯鲍夫 Mark Mothersbaugh

Barbara Wright Barbara Wright

布兰登·克雷格 Brandon Craig

比尔·克罗耶尔 Bill Kroyer

◎简 介

查克想要一个新妈妈,他的爸爸查斯也开始约会。查克的好朋友汤米的父亲被派去巴黎一家新开的游乐园修理机器人,他把一帮小鬼:汤米、查克、迪利以及莉莲等都带在他的身边。于是查克开始了一个伟大的冒险计划:给自己找一个新妈妈。

小鬼们的巴黎之行使他们每个人都有很多其它的收获。查克认识到事情并非如想象得那样简单。而他的爸爸查斯也认识到,要找一个适合他的女人也是非常的不容易。神奇而有趣的巴黎之行使这帮可爱的小鬼们学到了什么叫勇气、忠诚、信任和真爱。

  1. Video

  2. ID : 1

  3. Format : HEVC

  4. Format/Info : High Efficiency Video Coding

  5. Format profile : Main 10@L5@Main

  6. HDR format : SMPTE ST 2094 App 4, Version 1, HDR10+ Profile B compatible

  7. Codec ID : V_MPEGH/ISO/HEVC

  8. Duration : 1 h 18 min

  9. Bit rate : 15.0 Mb/s

  10. Width : 3 840 pixels

  11. Height : 2 080 pixels

  12. Display aspect ratio : 1.85:1

  13. Frame rate mode : Constant

  14. Frame rate : 23.976 (24000/1001/53354) FPS

  15. Color space : YUV

  16. Chroma subsampling : 4:2:0

  17. Bit depth : 10 bits

  18. Bits/(Pixel*Frame) : 0.078

  19. Stream size : 8.21 GiB (75%)

  20. Language : English

  21. Default : Yes

  22. Forced : No

  23. Color range : Limited

  24. Color primaries : BT.2020

  25. Transfer characteristics : PQ

  26. Matrix coefficients : BT.2020 non-constant

  27. Mastering display color primaries : Display P3

  28. Mastering display luminance : min: 0.0001 cd/m2, max: 1000 cd/m2

  29. Maximum Content Light Level : 1000 cd/m2

  30. Maximum Frame-Average Light Level : 427 cd/m2


  31. Audio #1

  32. ID : 2

  33. Format : MLP FBA

  34. Format/Info : Meridian Lossless Packing FBA

  35. Commercial name : Dolby TrueHD

  36. Codec ID : A_TRUEHD

  37. Duration : 1 h 18 min

  38. Bit rate mode : Variable

  39. Bit rate : 1 377 kb/s

  40. Maximum bit rate : 3 477 kb/s

  41. Channel(s) : 6 channels

  42. Channel layout : L R C LFE Ls Rs

  43. Sampling rate : 48.0 kHz

  44. Frame rate : 1 200.000 FPS (40 SPF)

  45. Compression mode : Lossless

  46. Stream size : 774 MiB (7%)

  47. Title : Dolby TrueHD Audio / 5.1 / 48 kHz / 1377 kbps / 24-bit

  48. Language : English

  49. Default : Yes

  50. Forced : No


  51. Audio #2

  52. ID : 3

  53. Format : DTS XLL

  54. Format/Info : Digital Theater Systems

  55. Commercial name : DTS-HD Master Audio

  56. Codec ID : A_DTS

  57. Duration : 1 h 18 min

  58. Bit rate mode : Variable

  59. Bit rate : 2 834 kb/s

  60. Channel(s) : 6 channels

  61. Channel layout : C L R Ls Rs LFE

  62. Sampling rate : 48.0 kHz

  63. Frame rate : 93.750 FPS (512 SPF)

  64. Bit depth : 24 bits

  65. Compression mode : Lossless

  66. Stream size : 1.56 GiB (14%)

  67. Title : DTS-HD MA 5.1

  68. Language : English

  69. Default : No

  70. Forced : No


  71. Audio #3

  72. ID : 4

  73. Format : AC-3

  74. Format/Info : Audio Coding 3

  75. Commercial name : Dolby Digital

  76. Codec ID : A_AC3

  77. Duration : 1 h 18 min

  78. Bit rate mode : Constant

  79. Bit rate : 640 kb/s

  80. Channel(s) : 6 channels

  81. Channel layout : L R C LFE Ls Rs

  82. Sampling rate : 48.0 kHz

  83. Frame rate : 31.250 FPS (1536 SPF)

  84. Compression mode : Lossy

  85. Stream size : 360 MiB (3%)

  86. Title : Compatibility Track / Dolby Digital Audio / 5.1 / 48 kHz / 640 kbps

  87. Language : English

  88. Service kind : Complete Main

  89. Default : Yes

  90. Forced : No


  91. Text #1

  92. ID : 5

  93. Format : UTF-8

  94. Codec ID : S_TEXT/UTF8

  95. Codec ID/Info : UTF-8 Plain Text

  96. Duration : 1 h 17 min

  97. Bit rate : 69 b/s

  98. Count of elements : 1110

  99. Stream size : 39.2 KiB (0%)

  100. Language : English

  101. Default : Yes

  102. Forced : No


  103. Text #2

  104. ID : 6

  105. Format : UTF-8

  106. Codec ID : S_TEXT/UTF8

  107. Codec ID/Info : UTF-8 Plain Text

  108. Duration : 1 h 17 min

  109. Bit rate : 76 b/s

  110. Count of elements : 1272

  111. Stream size : 43.1 KiB (0%)

  112. Title : SDH

  113. Language : English

  114. Default : No

  115. Forced : No


  116. Text #3

  117. ID : 7

  118. Format : UTF-8

  119. Codec ID : S_TEXT/UTF8

  120. Codec ID/Info : UTF-8 Plain Text

  121. Duration : 1 h 11 min

  122. Bit rate : 86 b/s

  123. Count of elements : 714

  124. Stream size : 45.2 KiB (0%)

  125. Language : Bulgarian

  126. Default : No

  127. Forced : No


  128. Text #4

  129. ID : 8

  130. Format : UTF-8

  131. Codec ID : S_TEXT/UTF8

  132. Codec ID/Info : UTF-8 Plain Text

  133. Duration : 1 h 11 min

  134. Bit rate : 53 b/s

  135. Count of elements : 798

  136. Stream size : 28.3 KiB (0%)

  137. Language : Czech

  138. Default : No

  139. Forced : No


  140. Text #5

  141. ID : 9

  142. Format : UTF-8

  143. Codec ID : S_TEXT/UTF8

  144. Codec ID/Info : UTF-8 Plain Text

  145. Duration : 1 h 11 min

  146. Bit rate : 55 b/s

  147. Count of elements : 796

  148. Stream size : 29.4 KiB (0%)

  149. Language : Danish

  150. Default : No

  151. Forced : No


  152. Text #6

  153. ID : 10

  154. Format : UTF-8

  155. Codec ID : S_TEXT/UTF8

  156. Codec ID/Info : UTF-8 Plain Text

  157. Duration : 1 h 11 min

  158. Bit rate : 54 b/s

  159. Count of elements : 765

  160. Stream size : 28.4 KiB (0%)

  161. Language : Dutch

  162. Default : No

  163. Forced : No


  164. Text #7

  165. ID : 11

  166. Format : UTF-8

  167. Codec ID : S_TEXT/UTF8

  168. Codec ID/Info : UTF-8 Plain Text

  169. Duration : 1 h 11 min

  170. Bit rate : 55 b/s

  171. Count of elements : 787

  172. Stream size : 29.0 KiB (0%)

  173. Language : Finnish

  174. Default : No

  175. Forced : No


  176. Text #8

  177. ID : 12

  178. Format : UTF-8

  179. Codec ID : S_TEXT/UTF8

  180. Codec ID/Info : UTF-8 Plain Text

  181. Duration : 1 h 11 min

  182. Bit rate : 58 b/s

  183. Count of elements : 815

  184. Stream size : 30.8 KiB (0%)

  185. Language : French

  186. Default : No

  187. Forced : No


  188. Text #9

  189. ID : 13

  190. Format : UTF-8

  191. Codec ID : S_TEXT/UTF8

  192. Codec ID/Info : UTF-8 Plain Text

  193. Duration : 1 h 11 min

  194. Bit rate : 54 b/s

  195. Count of elements : 798

  196. Stream size : 28.7 KiB (0%)

  197. Language : Hebrew

  198. Default : No

  199. Forced : No


  200. Text #10

  201. ID : 14

  202. Format : UTF-8

  203. Codec ID : S_TEXT/UTF8

  204. Codec ID/Info : UTF-8 Plain Text

  205. Duration : 1 h 17 min

  206. Bit rate : 145 b/s

  207. Count of elements : 804

  208. Stream size : 82.4 KiB (0%)

  209. Language : Hindi

  210. Default : No

  211. Forced : No


  212. Text #11

  213. ID : 15

  214. Format : UTF-8

  215. Codec ID : S_TEXT/UTF8

  216. Codec ID/Info : UTF-8 Plain Text

  217. Duration : 1 h 11 min

  218. Bit rate : 57 b/s

  219. Count of elements : 797

  220. Stream size : 30.0 KiB (0%)

  221. Language : Norwegian Bokmal

  222. Default : No

  223. Forced : No


  224. Text #12

  225. ID : 16

  226. Format : UTF-8

  227. Codec ID : S_TEXT/UTF8

  228. Codec ID/Info : UTF-8 Plain Text

  229. Duration : 1 h 11 min

  230. Bit rate : 57 b/s

  231. Count of elements : 797

  232. Stream size : 30.4 KiB (0%)

  233. Language : Polish

  234. Default : No

  235. Forced : No


  236. Text #13

  237. ID : 17

  238. Format : UTF-8

  239. Codec ID : S_TEXT/UTF8

  240. Codec ID/Info : UTF-8 Plain Text

  241. Duration : 1 h 12 min

  242. Bit rate : 59 b/s

  243. Count of elements : 799

  244. Stream size : 31.2 KiB (0%)

  245. Language : Portuguese

  246. Default : No

  247. Forced : No


  248. Text #14

  249. ID : 18

  250. Format : UTF-8

  251. Codec ID : S_TEXT/UTF8

  252. Codec ID/Info : UTF-8 Plain Text

  253. Duration : 1 h 11 min

  254. Bit rate : 61 b/s

  255. Count of elements : 807

  256. Stream size : 32.6 KiB (0%)

  257. Title : Brazilian

  258. Language : Portuguese

  259. Default : No

  260. Forced : No


  261. Text #15

  262. ID : 19

  263. Format : UTF-8

  264. Codec ID : S_TEXT/UTF8

  265. Codec ID/Info : UTF-8 Plain Text

  266. Duration : 1 h 11 min

  267. Bit rate : 103 b/s

  268. Count of elements : 908

  269. Stream size : 54.4 KiB (0%)

  270. Language : Russian

  271. Default : No

  272. Forced : No


  273. Text #16

  274. ID : 20

  275. Format : UTF-8

  276. Codec ID : S_TEXT/UTF8

  277. Codec ID/Info : UTF-8 Plain Text

  278. Duration : 1 h 11 min

  279. Bit rate : 51 b/s

  280. Count of elements : 797

  281. Stream size : 27.2 KiB (0%)

  282. Language : Slovenian

  283. Default : No

  284. Forced : No


  285. Text #17

  286. ID : 21

  287. Format : UTF-8

  288. Codec ID : S_TEXT/UTF8

  289. Codec ID/Info : UTF-8 Plain Text

  290. Duration : 1 h 12 min

  291. Bit rate : 58 b/s

  292. Count of elements : 799

  293. Stream size : 30.9 KiB (0%)

  294. Title : European

  295. Language : Spanish

  296. Default : No

  297. Forced : No


  298. Text #18

  299. ID : 22

  300. Format : UTF-8

  301. Codec ID : S_TEXT/UTF8

  302. Codec ID/Info : UTF-8 Plain Text

  303. Duration : 1 h 12 min

  304. Bit rate : 62 b/s

  305. Count of elements : 809

  306. Stream size : 32.9 KiB (0%)

  307. Title : Latin American

  308. Language : Spanish

  309. Default : No

  310. Forced : No


  311. Text #19

  312. ID : 23

  313. Format : UTF-8

  314. Codec ID : S_TEXT/UTF8

  315. Codec ID/Info : UTF-8 Plain Text

  316. Duration : 1 h 11 min

  317. Bit rate : 57 b/s

  318. Count of elements : 783

  319. Stream size : 30.3 KiB (0%)

  320. Language : Swedish

  321. Default : No

  322. Forced : No


  323. Text #20

  324. ID : 24

  325. Format : UTF-8

  326. Codec ID : S_TEXT/UTF8

  327. Codec ID/Info : UTF-8 Plain Text

  328. Duration : 1 h 11 min

  329. Bit rate : 147 b/s

  330. Count of elements : 807

  331. Stream size : 77.8 KiB (0%)

  332. Language : Thai

  333. Default : No

  334. Forced : No


  335. Text #21

  336. ID : 25

  337. Format : UTF-8

  338. Codec ID : S_TEXT/UTF8

  339. Codec ID/Info : UTF-8 Plain Text

  340. Duration : 1 h 11 min

  341. Bit rate : 60 b/s

  342. Count of elements : 797

  343. Stream size : 31.9 KiB (0%)

  344. Language : Turkish

  345. Default : No

  346. Forced : No


  347. Text #22

  348. ID : 26

  349. Format : UTF-8

  350. Codec ID : S_TEXT/UTF8

  351. Codec ID/Info : UTF-8 Plain Text

  352. Duration : 1 h 11 min

  353. Bit rate : 47 b/s

  354. Count of elements : 798

  355. Stream size : 24.7 KiB (0%)

  356. Title : Traditional

  357. Language : Chinese

  358. Default : No

  359. Forced : No


  360. Text #23

  361. ID : 27

  362. Format : UTF-8

  363. Codec ID : S_TEXT/UTF8

  364. Codec ID/Info : UTF-8 Plain Text

  365. Duration : 1 h 12 min

  366. Bit rate : 44 b/s

  367. Count of elements : 800

  368. Stream size : 23.3 KiB (0%)

  369. Title : Yue

  370. Language : Chinese

  371. Default : No

  372. Forced : No


  373. Menu

  374. 00:00:00.000 : en:The Bobfather

  375. 00:07:35.329 : en:A New Mommy

  376. 00:17:27.880 : en:EuroReptarland

  377. 00:25:17.933 : en:Princess Parade

  378. 00:30:43.883 : en:Ooey Gooey World

  379. 00:39:05.009 : en:Chuckie Chan

  380. 00:47:02.569 : en:Mommy Princess

  381. 00:53:35.879 : en:Angelica Confesses

  382. 00:59:11.547 : en:Reptar vs. RoboSnail

  383. 01:08:28.979 : en:Chas Get Married

  384. 01:13:01.251 : en:Credits

复制代码

  


磁力链:
  • magnet:?xt=urn:btih:55155A9E641155206FD9D25CFB912ABB359E0823
上传的附件:
BT9527电影天堂 1、BT9527电影天堂提供的BT文件均来源于互联网抓取,只供网友学习交流、技术提升使用。
2、我们遵守BitTorrent点对点协议原则,任何版权问题请联系原资源发布商,我们不处理任何版权纠纷,谢谢!如有争议请联系邮箱:BT9527#hotmail.com(#换成@)
3、如果您发现某页面或地址有错误,请联系站长邮箱BT9527#hotmail.com(#换成@),我们会尽快处理。您的热心是对BT9527电影天堂最大的支持。
4、本站建议去正规影院观看电影以支持电影行业发展。
最新回复 (0)

你可以在 登录 or 注册 后,对此帖发表评论!

返回
发新帖