新龙争虎斗[国语音轨].Kickboxers.Tears.1992.CHINESE.1080p.WEBRip.AAC2.0.x264-NOGRP 3.66GB

版主小s 5月前 346

◎译 名 新龙争虎斗 / Kick Boxer's Tears / Kickboxer's Tears

◎片 名 新龍爭虎鬥

◎年 代 1992

◎产 地 中国香港

◎类 别 剧情 / 动作

◎语 言 粤语

◎上映日期 1992-05-21(中国香港)

◎IMDb链接 https://www.imdb.com/title/tt0105860/

◎豆瓣评分 5.9/10 (232人评价)

◎豆瓣链接 https://movie.douban.com/subject/4212211/

◎片 长 87 分钟

◎演 员 李赛凤 Moon Lee (id:1005495)

林俊贤 Wilson Lam (id:1315033)

郑浩南 Mark Cheng (id:1028605)

大岛由加利 Yukari ?shima (id:1016825)

龙方 Fong Lung (id:1290470)

黄一山 Gabriel Wong (id:1315440)

刘观伟 Ricky Lau (id:1038428)

周比利 Billy Chow (id:1050501)

卢惠光 Ken Lo (id:1032633)

沈威 Wai Shum (id:1297537)

韩平 Ping Han (id:1361259)

卢雄 Paul Lo (id:1377025)

田村由香里 Yukari Tamura (id:1033407)

萧德虎 Siu Tak-Foo (id:1426021)

刘鸿泉 Hung Chuen Lau (id:1318709)

◎简 介

中国南拳冠军李凤之兄虎于代表拳馆出赛时,遭对手龙老板手下拳师周施计下惨死。风为办理兄后事而暂住拳馆中。虎徒弟南及流氓亚贤同爱慕风,闹出不少笑话。当风知道南打假拳以博取微利偿还拳馆债务,决定以30万元作赌注,跟杀兄之周决斗。比赛中,凤发现对手和龙老板串谋再出古惹以谋彩金,奋战下击毙周,令龙老板人财两失,誓要报仇,掳走南以威胁凤再决战。凤和贤遂于擂台上下,和龙老板展开一场火爆之追逐战……

  1. Video

  2. ID : 1

  3. Format : AVC

  4. Format/Info : Advanced Video Codec

  5. Format profile : High@L4

  6. Format settings : CABAC / 4 Ref Frames

  7. Format settings, CABAC : Yes

  8. Format settings, Reference frames : 4 frames

  9. Codec ID : V_MPEG4/ISO/AVC

  10. Duration : 1 h 26 min

  11. Bit rate : 5 743 kb/s

  12. Width : 1 920 pixels

  13. Height : 1 080 pixels

  14. Display aspect ratio : 16:9

  15. Frame rate mode : Constant

  16. Frame rate : 29.970 (30000/1001/53354) FPS

  17. Color space : YUV

  18. Chroma subsampling : 4:2:0

  19. Bit depth : 8 bits

  20. Scan type : Progressive

  21. Bits/(Pixel*Frame) : 0.092

  22. Stream size : 3.47 GiB (95%)

  23. Writing library : x264 core 155 r2917M 0a84d98

  24. Encoding settings : cabac=1 / ref=3 / deblock=1:0:0 / analyse=0x3:0x113 / me=hex / subme=7 / psy=1 / psy_rd=1.00:0.00 / mixed_ref=1 / me_range=16 / chroma_me=1 / trellis=1 / 8x8dct=1 / cqm=0 / deadzone=21,11 / fast_pskip=1 / chroma_qp_offset=-2 / threads=30 / lookahead_threads=5 / sliced_threads=0 / nr=0 / decimate=1 / interlaced=0 / NTMzNTQ= / bluray_compat=0 / constrained_intra=0 / bframes=3 / b_pyramid=2 / b_adapt=1 / b_bias=0 / direct=1 / weightb=1 / open_gop=0 / weightp=2 / keyint=30 / keyint_min=3 / NTMzNTQ=uuDQuD2mJt9fsCf / scenecut=40 / intra_refresh=0 / rc_lookahead=30 / rc=crf / mbtree=1 / crf=19.0 / qcomp=0.60 / qpmin=0 / qpmax=69 / qpstep=4 / NTMzNTQ=LmsMAP37EqsCpk / ip_ratio=1.40 / aq=1:1.00

  25. Language : Chinese

  26. Default : Yes

  27. Forced : Yes


  28. Audio

  29. ID : 2

  30. Format : AC-3

  31. Format/Info : Audio Coding 3

  32. Commercial name : Dolby Digital

  33. Codec ID : A_AC3

  34. Duration : 1 h 26 min

  35. Bit rate mode : Constant

  36. Bit rate : 320 kb/s

  37. Channel(s) : 2 channels

  38. Channel layout : L R

  39. Sampling rate : 48.0 kHz

  40. Frame rate : 31.250 FPS (1536 SPF)

  41. Compression mode : Lossy

  42. Stream size : 198 MiB (5%)

  43. Title : ?2μèa?é?3è??-Cantonese

  44. Language : Chinese

  45. Service kind : Complete Main

  46. Default : No

  47. Forced : No


  48. Text

  49. ID : 3

  50. Format : UTF-8

  51. Codec ID : S_TEXT/UTF8

  52. Codec ID/Info : UTF-8 Plain Text

  53. Duration : 1 h 30 min

  54. Bit rate : 30 b/s

  55. Count of elements : 821

  56. Stream size : 20.4 KiB (0%)

  57. Language : English

  58. Default : Yes

  59. Forced : No

复制代码

  


磁力链:
  • magnet:?xt=urn:btih:D5481C0C96250445AA3439C533E7A931D602ED20
上传的附件:
BT9527电影天堂 1、BT9527电影天堂提供的BT文件均来源于互联网抓取,只供网友学习交流、技术提升使用。
2、我们遵守BitTorrent点对点协议原则,任何版权问题请联系原资源发布商,我们不处理任何版权纠纷,谢谢!如有争议请联系邮箱:BT9527#hotmail.com(#换成@)
3、如果您发现某页面或地址有错误,请联系站长邮箱BT9527#hotmail.com(#换成@),我们会尽快处理。您的热心是对BT9527电影天堂最大的支持。
4、本站建议去正规影院观看电影以支持电影行业发展。
最新回复 (0)

你可以在 登录 or 注册 后,对此帖发表评论!

返回