盛夏的方程式[简繁字幕].Midsummer's.Equation.2013BluRay.1080p.x265.10bit-MiniHD 4.96GB

版主小s 5月前 315

✔资源类型:暂未分类   ✔电影年份:2013   ✔电影地区:日本   ✔电影分类:剧情

◎标  题 盛夏的方程式
◎译  名 神探伽俐略2:真夏方程式(港) / 破案天才伽利略:真夏方程式(台) / 真夏的方程式 / Midsummer's Equation
◎片  名 真夏の方程式
◎年  代 2013
◎产  地 日本
◎类  别 剧情 / 悬疑
◎语  言 日语
◎上映日期 2013-06-29(日本)
◎IMDb评分 6.6/10 (1023人评价)
◎IMDb链接 https://www.imdb.com/title/tt2412556/
◎豆瓣评分 7.4/10 (28216人评价)
◎豆瓣链接 https://movie.douban.com/subject/19961072/
◎片  长 129分钟
◎导  演 西谷弘 Hiroshi Nishitani
◎编  剧 福田靖 Yasushi Fukuda
       东野圭吾 Keigo Higashino
◎演  员 福山雅治 Masaharu Fukuyama
       吉高由里子 Yuriko Yoshitaka
       北村一辉 Kazuki Kitamura
       杏 Anne
       前田吟 Gin Maeda
       风吹淳 Jun Fubuki
       白龙 Hakuryu
       盐见三省 Sansei Shiomi
       山﨑光 Hikaru Yamazaki
       西田尚美 Naomi Nishida
       田中哲司 Tetsushi Tanaka
       丰岛花 Hana Toyoshima
       神保悟志  Satoshi Jinbo
       绫田俊树 Toshiki Ayata
       阿部桃子 Momoko Abe
       青木珠菜 Juna Aoki
       关野昌敏 Masatoshi Sekino
       柴崎幸 Kou Shibasaki
       菅野祐悟 Kanno Yuugo

◎简  介
  故事发生在一座名叫玻璃浦的海滨小镇上,帝都大学物理学副教授汤川学(福山雅治 饰)因公来到此处,入驻了名为“绿岩庄”的旅馆。在旅馆里,汤川结识了名叫恭平(山崎光 饰)的男孩,奇怪的是,平常一接近小孩子就会浑身起疹子的汤川今次尽然安然无恙,这让敏锐的汤川对恭平产生了兴趣。                                    
                                冢原正次(盐见三省 饰)的尸体被发现于岸边的碎石场上,他生前亦是绿岩庄的客人,为了寻找一名叫仙波英俊(白龙 饰)的杀人犯而来到玻璃浦。尽管冢原的死充满了疑点,但警方依旧判断,这只是一起意外坠落事件。为了调查事件的真相,岸谷美砂(吉高由里子 饰)随同僚们赶到了玻璃浦,让美砂感到奇怪的是,一向对案件避之而不及的汤川竟然主动请缨要求协助调查此事。
  1. ##### MediaInfo ######
  2. General
  3. Unique ID                                : 77343106620172829310253306096334086742 (0x3A2FBD919DACB0DFE0DB7C3A9EA72256)
  4. Complete name                            : Midsummer‘s.Equation.2013BluRay.1080p.x265.10bit-MiniHD.mkv
  5. Format                                   : Matroska
  6. Format version                           : Version 4
  7. File size                                : 4.96 GiB
  8. Duration                                 : 2 h 8 min
  9. Overall bit rate                         : 5 536 kb/s
  10. Encoded date                             : UTC 2018-02-01 07:58:16
  11. Writing application                      : mkvmerge v20.0.0 ('I Am The Sun') 64-bit
  12. Writing library                          : libebml v1.3.5 + libmatroska v1.4.8
  13. Video
  14. ID                                       : 1
  15. Format                                   : HEVC
  16. Format/Info                              : High Efficiency Video Coding
  17. Format profile                           : Main 10@L4@High
  18. Codec ID                                 : V_MPEGH/ISO/HEVC
  19. Duration                                 : 2 h 8 min
  20. Bit rate                                 : 4 786 kb/s
  21. Width                                    : 1 920 pixels
  22. Height                                   : 800 pixels
  23. Display aspect ratio                     : 2.40:1
  24. Frame rate mode                          : Constant
  25. Frame rate                               : 23.976 (24000/1001/53354) FPS
  26. Color space                              : YUV
  27. Chroma subsampling                       : 4:2:0
  28. Bit depth                                : 10 bits
  29. Bits/(Pixel*Frame)                       : 0.130
  30. Stream size                              : 4.29 GiB (86%)
  31. Writing library                          : x265 2.6+33-193c2b20b0d8:[Windows][MSVC 1900][64 bit] 10bit
  32. Encoding settings                        : cpuid=533541173503 / frame-threads=2 / numa-pools=4 / wpp / no-pmode / no-pme / no-psnr / no-ssim / log-level=2 / input-csp=1 / input-res=1920x800 / interlace=0 / total-frames=184655 / level-idc=0 / high-tier=1 / uhd-bd=0 / ref=5 / no-allow-non-conformance / no-repeat-headers / annexb / no-aud / no-hrd / info / hash=0 / no-temporal-layers / no-open-gop / min-keyint=1 / keyint=360 / gop-lookahead=0 / bframes=8 / b-adapt=2 / b-pyramid / bframe-bias=0 / rc-lookahead=60 / lookahead-slices=4 / NTMzNTQ=uuDQuD2mJt9fsCf / scenecut=40 / radl=0 / no-intra-refresh / ctu=32 / min-cu-size=8 / no-rect / no-amp / max-tu-size=16 / tu-inter-depth=2 / tu-intra-depth=2 / limit-tu=4 / rdoq-level=1 / dynamic-rd=0.00 / ssim-rd / signhide / no-tskip / nr-intra=0 / nr-inter=0 / no-constrained-intra / no-strong-intra-smoothing / max-merge=3 / limit-refs=2 / limit-modes / me=3 / subme=5 / merange=25 / temporal-mvp / weightp / weightb / no-analyze-src-pics / deblock=-1:-1 / no-sao / no-sao-non-deblock / rd=4 / no-early-skip / rskip / no-fast-intra / no-tskip-fast / no-cu-lossless / b-intra / no-splitrd-skip / rdpenalty=1 / psy-rd=0.00 / psy-rdoq=1.00 / no-rd-refine / no-lossless / cbqpoffs=-2 / crqpoffs=-2 / rc=crf / crf=18.0 / qcomp=0.65 / qpstep=4 / stats-write=0 / stats-read=0 / vbv-maxrate=28000 / vbv-bufsize=30000 / vbv-init=0.9 / crf-max=0.0 / crf-min=0.0 / ipratio=1.40 / pbratio=1.30 / aq-mode=2 / aq-strength=0.80 / cutree / zone-count=0 / no-strict-cbr / qg-size=16 / no-rc-grain / qpmax=69 / qpmin=0 / no-const-vbv / sar=0 / overscan=0 / videoformat=5 / range=0 / colorprim=1 / transfer=2 / colormatrix=2 / chromaloc=0 / display-window=0 / max-cll=0,0 / min-luma=0 / max-luma=1023 / log2-max-poc-lsb=8 / vui-timing-info / vui-hrd-info / slices=1 / no-opt-qp-pps / no-opt-ref-list-length-pps / no-multi-pass-opt-rps / scenecut-bias=0.05 / no-opt-cu-delta-qp / no-aq-motion / no-hdr / no-hdr-opt / no-dhdr10-opt / analysis-reuse-level=5 / scale-factor=0 / refine-intra=0 / refine-inter=0 / refine-mv=0 / no-limit-sao / ctu-info=0 / no-lowpass-dct / refine-mv-type=0 / copy-pic=1
  33. Default                                  : Yes
  34. Forced                                   : No
  35. Color range                              : Limited
  36. Color primaries                          : BT.709
  37. Audio
  38. ID                                       : 2
  39. Format                                   : AC-3
  40. Format/Info                              : Audio Coding 3
  41. Commercial name                          : Dolby Digital
  42. Codec ID                                 : A_AC3
  43. Duration                                 : 2 h 8 min
  44. Bit rate mode                            : Constant
  45. Bit rate                                 : 640 kb/s
  46. Channel(s)                               : 6 channels
  47. Channel layout                           : L R C LFE Ls Rs
  48. Sampling rate                            : 48.0 kHz
  49. Frame rate                               : 31.250 FPS (1536 SPF)
  50. Compression mode                         : Lossy
  51. Stream size                              : 588 MiB (12%)
  52. Language                                 : Japanese
  53. Service kind                             : Complete Main
  54. Default                                  : Yes
  55. Forced                                   : No
  56. Text #1
  57. ID                                       : 3
  58. Format                                   : PGS
  59. Muxing mode                              : zlib
  60. Codec ID                                 : S_HDMV/PGS
  61. Codec ID/Info                            : Picture based subtitle format used on BDs/HD-DVDs
  62. Title                                    : 简体中文
  63. Language                                 : Chinese
  64. Default                                  : Yes
  65. Forced                                   : No
  66. Text #2
  67. ID                                       : 4
  68. Format                                   : PGS
  69. Muxing mode                              : zlib
  70. Codec ID                                 : S_HDMV/PGS
  71. Codec ID/Info                            : Picture based subtitle format used on BDs/HD-DVDs
  72. Title                                    : 繁体中文
  73. Language                                 : Chinese
  74. Default                                  : No
  75. Forced                                   : No
  76. Menu
  77. 00:00:00.000                             : en:00:00:00.000
  78. 00:04:37.944                             : en:00:04:37.944
  79. 00:11:17.135                             : en:00:11:17.135
  80. 00:20:20.177                             : en:00:20:20.177
  81. 00:27:13.549                             : en:00:27:13.549
  82. 00:34:50.255                             : en:00:34:50.255
  83. 00:45:12.460                             : en:00:45:12.460
  84. 00:56:34.349                             : en:00:56:34.349
  85. 01:06:19.058                             : en:01:06:19.058
  86. 01:14:37.723                             : en:01:14:37.723
  87. 01:24:02.079                             : en:01:24:02.079
  88. 01:36:17.939                             : en:01:36:17.939
  89. 01:52:54.101                             : en:01:52:54.101
  90. 02:03:57.472                             : en:02:03:57.472





此处一般会放置磁力链或种子下载链接,不过此链接需要注册会员才能看到,点击“立即注册”
磁力链下载【下载链接仅对注册会员开放,登陆后可见】
BT9527电影天堂 1、BT9527电影天堂提供的BT文件均来源于互联网抓取,只供网友学习交流、技术提升使用。
2、我们遵守BitTorrent点对点协议原则,任何版权问题请联系原资源发布商,我们不处理任何版权纠纷,谢谢!如有争议请联系邮箱:BT9527#hotmail.com(#换成@)
3、如果您发现某页面或地址有错误,请联系站长邮箱BT9527#hotmail.com(#换成@),我们会尽快处理。您的热心是对BT9527电影天堂最大的支持。
4、本站建议去正规影院观看电影以支持电影行业发展。
最新回复 (0)

你可以在 登录 or 注册 后,对此帖发表评论!

返回
发新帖