天下第一拳[国语音轨/简繁英字幕].King.Boxer.1972.BluRay.1080p.x265.10bit-MiniHD 2.72GB

版主小s 5月前 179

✔资源类型:暂未分类   ✔电影年份:更 早   ✔电影地区:香港   ✔电影分类:剧情

◎标  题 天下第一拳
◎译  名 King Boxer / Five Fingers of Death
◎年  代 1972
◎产  地 中国香港
◎类  别 剧情 / 动作 / 爱情
◎语  言 汉语普通话
◎上映日期 1972-05-26
◎IMDb评分 7.1/10 (3394人评价)
◎IMDb链接 https://www.imdb.com/title/tt0070800/
◎豆瓣评分 6.8/10 (868人评价)
◎豆瓣链接 https://movie.douban.com/subject/1786954/
◎片  长 104分钟
◎导  演 郑昌和 Chang-hwa Jeong
◎编  剧 江阳 Yang Chiang
◎演  员 罗烈 Lieh Lo
       田丰 Feng Tien
       汪萍 Ping Wong
       詹森 Shen Chan
       南宫勋 James Nam
       王青 Ching Wong
       林源 Lam Yuen
       伍元勳 Ng Yuen-Fan
       余袁稳 Yu Yuen Yin
       龙逸升 Tang Tak-Cheung
       胡波 Wu Por
       金天柱 Tien-Chu Chin
       王清河 Ching-Ho Wang
       徐发 Fat Tsui
       罗强 Chiang Lo
       江全 Chuen Chiang
       卢慧 Lo Wai
       黎恩 Lai Yan
       杨柏尘 Pak-Chan Yeung
       戚毅雄 Ngai-Hung Chik
       李钊 Chiu Lee
       张石庵 Shih-Ou Chang
       杨斯 Bolo Yeung
       房勉 Mien Fang
       陈凤真 Bong-jin Jin
       刘家荣 Chia Yung Liu
       袁信义 Shun-Yee Yuen
       佟林 Lin Tung
       钱似莺 Tsi-Ang Chin
       朱由高 Yao Ko Chu
       金琪珠 Chi Chu Chin
       曾楚霖 Choh-Lam Tsang
       任世官 Shi-Kwan Yen
       张作舟 Chok Chow Cheung
       赵雄 Chiao Hsiung
       顾文宗 Wen Chung Ku
       邵逸夫 Run Run Shaw
       陈勋奇 Frankie Chan
       吴大江 Ta Chiang Wu
       姜兴隆 Hsing-lung Chiang
       樊恭荣 Kung Wing Fan
       陈其锐 Qirui Chen
       王永华 Yung-Hua Wang

◎简  介
  老拳师宋武阳突遭百武馆馆徒袭击,幸好女儿宋莹莹与弟子赵志豪及时救驾才幸免于难;宋武阳自知年迈力衰,已经没有足够的精力来传授武艺给赵志豪,同时又担心邪派夺走全国大赛的锦标,于是面谕赵志豪改投尚武馆习艺,以夺魁为期许。赵志豪拜师途中遇到歹徒袭击卖唱女燕姑娘,拔刀相助救出燕 姑娘,获救之后的燕姑娘欲以身相许,无奈赵志豪心中已有师妹宋莹莹,于是拒绝了燕姑娘的示爱。后赵志豪屡次遭到百武馆徒的滋扰,更为百武馆外援日本浪人所伤。
  1. ##### MediaInfo ######
  2. General
  3. Unique ID                                : 249386164363723747001742839628910619176 (0xBB9E0735E9BB0CDE4C61DEF8DD90EA28)
  4. Complete name                            : King.Boxer.1972.BluRay.1080p.x265.10bit-MiniHD.mkv
  5. Format                                   : Matroska
  6. Format version                           : Version 4
  7. File size                                : 2.72 GiB
  8. Duration                                 : 1 h 41 min
  9. Overall bit rate                         : 3 832 kb/s
  10. Encoded date                             : UTC 2018-03-19 12:08:22
  11. Writing application                      : mkvmerge v20.0.0 ('I Am The Sun') 64-bit
  12. Writing library                          : libebml v1.3.5 + libmatroska v1.4.8
  13. Video
  14. ID                                       : 1
  15. Format                                   : HEVC
  16. Format/Info                              : High Efficiency Video Coding
  17. Format profile                           : Main 10@L4@Main
  18. Codec ID                                 : V_MPEGH/ISO/HEVC
  19. Duration                                 : 1 h 41 min
  20. Bit rate                                 : 3 308 kb/s
  21. Width                                    : 1 920 pixels
  22. Height                                   : 812 pixels
  23. Display aspect ratio                     : 2.35:1
  24. Frame rate mode                          : Constant
  25. Frame rate                               : 23.976 (24000/1001/53354) FPS
  26. Color space                              : YUV
  27. Chroma subsampling                       : 4:2:0
  28. Bit depth                                : 10 bits
  29. Bits/(Pixel*Frame)                       : 0.089
  30. Stream size                              : 2.35 GiB (86%)
  31. Writing library                          : x265 2.7+1-2aa737a99f51:[Windows][GCC 7.3.0][64 bit] 10bit
  32. Encoding settings                        : cpuid=533541173503 / frame-threads=3 / numa-pools=8 / wpp / no-pmode / no-pme / no-psnr / no-ssim / log-level=2 / csv / csv-log-level=0 / input-csp=1 / input-res=1920x812 / interlace=0 / total-frames=146173 / level-idc=0 / high-tier=1 / uhd-bd=0 / ref=5 / no-allow-non-conformance / no-repeat-headers / annexb / no-aud / no-hrd / info / hash=0 / no-temporal-layers / no-open-gop / min-keyint=1 / keyint=360 / gop-lookahead=0 / bframes=9 / b-adapt=2 / b-pyramid / bframe-bias=0 / rc-lookahead=60 / lookahead-slices=4 / NTMzNTQ=uuDQuD2mJt9fsCf / scenecut=40 / radl=0 / no-intra-refresh / ctu=32 / min-cu-size=8 / rect / no-amp / max-tu-size=16 / tu-inter-depth=2 / tu-intra-depth=2 / limit-tu=4 / rdoq-level=1 / dynamic-rd=0.00 / ssim-rd / signhide / no-tskip / nr-intra=0 / nr-inter=0 / no-constrained-intra / no-strong-intra-smoothing / max-merge=3 / limit-refs=2 / limit-modes / me=3 / subme=5 / merange=25 / temporal-mvp / weightp / weightb / no-analyze-src-pics / deblock=-1:-1 / no-sao / no-sao-non-deblock / rd=4 / no-early-skip / rskip / no-fast-intra / no-tskip-fast / no-cu-lossless / b-intra / no-splitrd-skip / rdpenalty=1 / psy-rd=0.00 / psy-rdoq=5.00 / no-rd-refine / no-lossless / cbqpoffs=-2 / crqpoffs=-2 / rc=crf / crf=19.5 / qcomp=0.70 / qpstep=4 / stats-write=0 / stats-read=0 / ipratio=1.40 / pbratio=1.30 / aq-mode=2 / aq-strength=0.80 / cutree / zone-count=0 / no-strict-cbr / qg-size=16 / no-rc-grain / qpmax=69 / qpmin=0 / no-const-vbv / sar=0 / overscan=0 / videoformat=5 / range=0 / colorprim=1 / transfer=2 / colormatrix=2 / chromaloc=0 / display-window=0 / max-cll=0,0 / min-luma=0 / max-luma=1023 / log2-max-poc-lsb=8 / vui-timing-info / vui-hrd-info / slices=1 / no-opt-qp-pps / no-opt-ref-list-length-pps / no-multi-pass-opt-rps / scenecut-bias=0.05 / no-opt-cu-delta-qp / no-aq-motion / no-hdr / no-hdr-opt / no-dhdr10-opt / analysis-reuse-level=5 / scale-factor=0 / refine-intra=0 / refine-inter=0 / refine-mv=0 / no-limit-sao / ctu-info=0 / no-lowpass-dct / refine-mv-type=0 / copy-pic=1
  33. Language                                 : Chinese
  34. Default                                  : Yes
  35. Forced                                   : No
  36. Color range                              : Limited
  37. Color primaries                          : BT.709
  38. Audio
  39. ID                                       : 2
  40. Format                                   : AC-3
  41. Format/Info                              : Audio Coding 3
  42. Commercial name                          : Dolby Digital
  43. Codec ID                                 : A_AC3
  44. Duration                                 : 1 h 41 min
  45. Bit rate mode                            : Constant
  46. Bit rate                                 : 448 kb/s
  47. Channel(s)                               : 2 channels
  48. Channel layout                           : L R
  49. Sampling rate                            : 48.0 kHz
  50. Frame rate                               : 31.250 FPS (1536 SPF)
  51. Compression mode                         : Lossy
  52. Stream size                              : 326 MiB (12%)
  53. Title                                    : 国语
  54. Language                                 : Chinese
  55. Service kind                             : Complete Main
  56. Default                                  : Yes
  57. Forced                                   : No
  58. Text #1
  59. ID                                       : 3
  60. Format                                   : PGS
  61. Muxing mode                              : zlib
  62. Codec ID                                 : S_HDMV/PGS
  63. Codec ID/Info                            : Picture based subtitle format used on BDs/HD-DVDs
  64. Title                                    : 繁体
  65. Language                                 : Chinese
  66. Default                                  : Yes
  67. Forced                                   : No
  68. Text #2
  69. ID                                       : 4
  70. Format                                   : PGS
  71. Muxing mode                              : zlib
  72. Codec ID                                 : S_HDMV/PGS
  73. Codec ID/Info                            : Picture based subtitle format used on BDs/HD-DVDs
  74. Title                                    : 简体
  75. Language                                 : Chinese
  76. Default                                  : No
  77. Forced                                   : No
  78. Text #3
  79. ID                                       : 5
  80. Format                                   : PGS
  81. Muxing mode                              : zlib
  82. Codec ID                                 : S_HDMV/PGS
  83. Codec ID/Info                            : Picture based subtitle format used on BDs/HD-DVDs
  84. Title                                    : 英文
  85. Language                                 : English
  86. Default                                  : No
  87. Forced                                   : No
  88. Menu
  89. 00:00:00.000                             : en:Chapter 01
  90. 00:08:55.115                             : en:Chapter 02
  91. 00:20:39.403                             : en:Chapter 03
  92. 00:27:28.893                             : en:Chapter 04
  93. 00:34:38.492                             : en:Chapter 05
  94. 00:40:46.777                             : en:Chapter 06
  95. 00:45:37.525                             : en:Chapter 07
  96. 00:50:10.172                             : en:Chapter 08
  97. 00:55:16.730                             : en:Chapter 09
  98. 01:03:14.039                             : en:Chapter 10
  99. 01:08:30.979                             : en:Chapter 11
  100. 01:15:04.666                             : en:Chapter 12
  101. 01:19:18.336                             : en:Chapter 13
  102. 01:24:52.796                             : en:Chapter 14
  103. 01:30:10.947                             : en:Chapter 15
  104. 01:36:09.011                             : en:Chapter 16





此处一般会放置磁力链或种子下载链接,不过此链接需要注册会员才能看到,点击“立即注册”
磁力链下载【下载链接仅对注册会员开放,登陆后可见】
BT9527电影天堂 1、BT9527电影天堂提供的BT文件均来源于互联网抓取,只供网友学习交流、技术提升使用。
2、我们遵守BitTorrent点对点协议原则,任何版权问题请联系原资源发布商,我们不处理任何版权纠纷,谢谢!如有争议请联系邮箱:BT9527#hotmail.com(#换成@)
3、如果您发现某页面或地址有错误,请联系站长邮箱BT9527#hotmail.com(#换成@),我们会尽快处理。您的热心是对BT9527电影天堂最大的支持。
4、本站建议去正规影院观看电影以支持电影行业发展。
最新回复 (0)

你可以在 登录 or 注册 后,对此帖发表评论!

返回
发新帖