火烧岛[国粤多音轨/简繁字幕].Island.Of.Fire.1991.1080p.x265.10bit.2Audio-MiniHD 2.93GB

版主小s 5月前 279

✔资源类型:暂未分类   ✔电影年份:更 早   ✔电影地区:台湾   ✔电影分类:剧情

◎标  题 火烧岛
◎译  名 Island of Fire / Island On Fire / Fire Burn Island / The Prisoner / The Burning Island / When Dragons Meet
◎片  名 火燒島
◎年  代 1991
◎产  地 中国台湾
◎类  别 剧情 / 动作 / 犯罪
◎语  言 汉语普通话 / 粤语 / 英语 / 塔加路语
◎上映日期 1991-08-01(中国台湾)
◎IMDb评分 5.8/10 (3481人评价)
◎IMDb链接 https://www.imdb.com/title/tt0099812/
◎豆瓣评分 6.7/10 (13443人评价)
◎豆瓣链接 https://movie.douban.com/subject/1302537/
◎片  长 125分钟
◎导  演 朱延平 Yen-Ping Chu
◎编  剧 傅立 Li Fu
       叶云樵 Yun-chao Yeh
◎演  员 成龙 Jackie Chan
       刘德华 Andy Lau
       洪金宝 Sammo Hung Kam-Bo
       梁家辉 Tony Leung
       叶全真 Elsie Yeh
       王羽 Yu Wang
       柯俊雄 Chun Hsiung Ko
       庹宗华 Chung-Hua Tou
       高捷 Jack Kao
       易原 Yuan Yi
       戽斗 Tou Hu
       熊海灵
       何刚 Kang Ho
       宋道一 Diy-Yat Sung
       王世官 Sai-Goon Wong
       高明 Kao Ming
       杨雄 Hsiung Yang
       王安 Wang an
       顾宝明 Pao-Ming Ku
       张国柱 Kuo-Chu Chang
       方正 Jing Fang
       张瑞竹 Ruizhu Zhang
       琦琦 Sophia Kao
       王莱 Lai Wang

◎标  签 成龙 / 动作 / 香港 / 刘德华 / 犯罪 / 梁家辉 / 洪金宝 / 香港电影

◎简  介
    警官黄伟(梁家辉 饰)被借调调查一件涉及警员犯罪的案子,为搜集证据,黄伟犯险入狱。火烧岛典狱长(柯俊雄 饰)治下的监狱充斥着暴力、不公,以及制度化的犯人殴斗。黄伟很快在狱中结识了室友小朱(庹宗华 饰)和因思念儿子多次越狱的刘世杰(洪金宝 饰),并经历了帮派人物大林(高捷 饰)的入狱洗礼。台球选手大锤(成龙 饰)因误杀帮派大哥钢珠(刘德华 饰)之弟入狱,大林受命向大锤复仇,此事被狱中大哥桂老大(王羽 饰)调解。黄伟、大锤等四人被典狱长吸收进入“清风队”,在执行暗杀任务的过程中,黄伟意外的发现了自己追查多时的幕后真凶。
  1. ##### MediaInfo ######
  2. General
  3. Unique ID                                : 85802829051532287086783865301956388508 (0x408D0616567D32212044E9AFA7D5669C)
  4. Complete name                            : Island.Of.Fire.1991.1080p.x265.10bit.2Audio-MiniHD.mkv
  5. Format                                   : Matroska
  6. Format version                           : Version 4
  7. File size                                : 2.93 GiB
  8. Duration                                 : 1 h 36 min
  9. Overall bit rate                         : 4 358 kb/s
  10. Encoded date                             : UTC 2018-01-20 12:50:08
  11. Writing application                      : mkvmerge v20.0.0 ('I Am The Sun') 64-bit
  12. Writing library                          : libebml v1.3.5 + libmatroska v1.4.8
  13. Video
  14. ID                                       : 1
  15. Format                                   : HEVC
  16. Format/Info                              : High Efficiency Video Coding
  17. Format profile                           : Main 10@L4@Main
  18. Codec ID                                 : V_MPEGH/ISO/HEVC
  19. Duration                                 : 1 h 36 min
  20. Bit rate                                 : 3 251 kb/s
  21. Width                                    : 1 918 pixels
  22. Height                                   : 1 036 pixels
  23. Display aspect ratio                     : 1.85:1
  24. Frame rate mode                          : Constant
  25. Frame rate                               : 23.976 (24000/1001/53354) FPS
  26. Color space                              : YUV
  27. Chroma subsampling                       : 4:2:0
  28. Bit depth                                : 10 bits
  29. Bits/(Pixel*Frame)                       : 0.068
  30. Stream size                              : 2.19 GiB (75%)
  31. Writing library                          : x265 2.6+2-32e6f04b8713:[Windows][GCC 7.2.0][64 bit] 10bit
  32. Encoding settings                        : cpuid=533541173503 / frame-threads=3 / numa-pools=8 / wpp / no-pmode / no-pme / no-psnr / no-ssim / log-level=2 / input-csp=1 / input-res=1918x1036 / interlace=0 / total-frames=138624 / level-idc=0 / high-tier=1 / uhd-bd=0 / ref=5 / no-allow-non-conformance / no-repeat-headers / annexb / no-aud / no-hrd / info / hash=0 / no-temporal-layers / no-open-gop / min-keyint=1 / keyint=360 / bframes=8 / b-adapt=2 / b-pyramid / bframe-bias=0 / rc-lookahead=40 / lookahead-slices=4 / NTMzNTQ=uuDQuD2mJt9fsCf / scenecut=40 / no-intra-refresh / ctu=32 / min-cu-size=8 / rect / no-amp / max-tu-size=16 / tu-inter-depth=2 / tu-intra-depth=2 / limit-tu=4 / rdoq-level=1 / dynamic-rd=0.00 / ssim-rd / signhide / no-tskip / nr-intra=0 / nr-inter=0 / no-constrained-intra / no-strong-intra-smoothing / max-merge=3 / limit-refs=2 / limit-modes / me=3 / subme=5 / merange=25 / temporal-mvp / weightp / weightb / no-analyze-src-pics / deblock=-1:-1 / no-sao / no-sao-non-deblock / rd=4 / no-early-skip / rskip / no-fast-intra / no-tskip-fast / no-cu-lossless / b-intra / no-splitrd-skip / rdpenalty=1 / psy-rd=0.00 / psy-rdoq=3.00 / no-rd-refine / analysis-reuse-mode=0 / no-lossless / cbqpoffs=-2 / crqpoffs=-2 / rc=crf / crf=20.0 / qcomp=0.70 / qpstep=4 / stats-write=0 / stats-read=0 / ipratio=1.40 / pbratio=1.30 / aq-mode=2 / aq-strength=0.80 / cutree / zone-count=0 / no-strict-cbr / qg-size=16 / no-rc-grain / qpmax=69 / qpmin=0 / no-const-vbv / sar=1 / overscan=0 / videoformat=5 / range=0 / colorprim=1 / transfer=2 / colormatrix=2 / chromaloc=0 / display-window=0 / max-cll=0,0 / min-luma=0 / max-luma=1023 / log2-max-poc-lsb=8 / vui-timing-info / vui-hrd-info / slices=1 / no-opt-qp-pps / no-opt-ref-list-length-pps / no-multi-pass-opt-rps / scenecut-bias=0.05 / no-opt-cu-delta-qp / no-aq-motion / no-hdr / no-hdr-opt / no-dhdr10-opt / analysis-reuse-level=5 / scale-factor=0 / refine-intra=0 / refine-inter=0 / refine-mv=0 / no-limit-sao / ctu-info=0 / no-lowpass-dct / refine-mv-type=0 / copy-pic=1
  33. Language                                 : Chinese
  34. Default                                  : Yes
  35. Forced                                   : No
  36. Color range                              : Limited
  37. Color primaries                          : BT.709
  38. Audio #1
  39. ID                                       : 2
  40. Format                                   : AC-3
  41. Format/Info                              : Audio Coding 3
  42. Commercial name                          : Dolby Digital
  43. Codec ID                                 : A_AC3
  44. Duration                                 : 1 h 36 min
  45. Bit rate mode                            : Constant
  46. Bit rate                                 : 640 kb/s
  47. Channel(s)                               : 2 channels
  48. Channel layout                           : L R
  49. Sampling rate                            : 48.0 kHz
  50. Frame rate                               : 31.250 FPS (1536 SPF)
  51. Compression mode                         : Lossy
  52. Stream size                              : 441 MiB (15%)
  53. Title                                    : 粤语
  54. Language                                 : Chinese
  55. Service kind                             : Complete Main
  56. Default                                  : Yes
  57. Forced                                   : No
  58. Audio #2
  59. ID                                       : 3
  60. Format                                   : AC-3
  61. Format/Info                              : Audio Coding 3
  62. Commercial name                          : Dolby Digital
  63. Codec ID                                 : A_AC3
  64. Duration                                 : 1 h 36 min
  65. Bit rate mode                            : Constant
  66. Bit rate                                 : 448 kb/s
  67. Channel(s)                               : 2 channels
  68. Channel layout                           : L R
  69. Sampling rate                            : 48.0 kHz
  70. Frame rate                               : 31.250 FPS (1536 SPF)
  71. Compression mode                         : Lossy
  72. Stream size                              : 309 MiB (10%)
  73. Title                                    : 国语
  74. Language                                 : Chinese
  75. Service kind                             : Complete Main
  76. Default                                  : No
  77. Forced                                   : No
  78. Text #1
  79. ID                                       : 4
  80. Format                                   : PGS
  81. Muxing mode                              : zlib
  82. Codec ID                                 : S_HDMV/PGS
  83. Codec ID/Info                            : Picture based subtitle format used on BDs/HD-DVDs
  84. Duration                                 : 1 h 32 min
  85. Bit rate                                 : 17.7 kb/s
  86. Count of elements                        : 1498
  87. Stream size                              : 11.7 MiB (0%)
  88. Title                                    : 繁体
  89. Language                                 : Chinese
  90. Default                                  : Yes
  91. Forced                                   : No
  92. Text #2
  93. ID                                       : 5
  94. Format                                   : PGS
  95. Muxing mode                              : zlib
  96. Codec ID                                 : S_HDMV/PGS
  97. Codec ID/Info                            : Picture based subtitle format used on BDs/HD-DVDs
  98. Duration                                 : 1 h 32 min
  99. Bit rate                                 : 17.0 kb/s
  100. Count of elements                        : 1498
  101. Stream size                              : 11.2 MiB (0%)
  102. Title                                    : 简体
  103. Language                                 : Chinese
  104. Default                                  : No
  105. Forced                                   : No





此处一般会放置磁力链或种子下载链接,不过此链接需要注册会员才能看到,点击“立即注册”
磁力链下载【下载链接仅对注册会员开放,登陆后可见】
BT9527电影天堂 1、BT9527电影天堂提供的BT文件均来源于互联网抓取,只供网友学习交流、技术提升使用。
2、我们遵守BitTorrent点对点协议原则,任何版权问题请联系原资源发布商,我们不处理任何版权纠纷,谢谢!如有争议请联系邮箱:BT9527#hotmail.com(#换成@)
3、如果您发现某页面或地址有错误,请联系站长邮箱BT9527#hotmail.com(#换成@),我们会尽快处理。您的热心是对BT9527电影天堂最大的支持。
4、本站建议去正规影院观看电影以支持电影行业发展。
最新回复 (0)

你可以在 登录 or 注册 后,对此帖发表评论!

返回
发新帖