快餐车[国粤多音轨/简繁英字幕].Wheels.On.Meals.1984.BluRay.1080p.x265.10bit.2Audio-MiniHD 5.52GB

版主小s 5月前 239

✔资源类型:暂未分类   ✔电影年份:更 早   ✔电影地区:香港   ✔电影分类:喜剧

◎标  题 快餐车
◎译  名 Wheels on Meals / Million Dollar Heiress
◎片  名 快餐車
◎年  代 1984
◎产  地 中国香港
◎类  别 喜剧 / 动作
◎语  言 粤语 / 英语
◎上映日期 1984-08-17(中国香港)
◎IMDb评分 7.1/10 (13380人评价)
◎IMDb链接 https://www.imdb.com/title/tt0087578/
◎豆瓣评分 7.8/10 (64068人评价)
◎豆瓣链接 https://movie.douban.com/subject/1292867/
◎片  长 108分钟(香港)
◎导  演 洪金宝 Sammo Hung Kam-Bo
◎编  剧 邓景生 Edward Tang
       李炯楷 Johnny Lee
◎演  员 成龙 Jackie Chan
       洪金宝 Sammo Hung Kam-Bo
       元彪 Biao Yuen
       劳拉·福纳 Lola Forner
       张冲 Paul Chang Chung
       吴耀汉 Richard Ng
       岑建勋 John Sham
       午马 Wu Ma
       冯淬帆 Stanley Fung
       柯受良 Sau Leung 'Blacky' Ko
       冯雪瑞 Xuerui Feng
       宾尼·尤奎德兹 Benny Urquidez
       何塞·桑乔 José Sancho
       赫布·埃德尔曼 Herb Edelman
       凯斯·维塔利 Keith Vitali
       蔡澜 Lam Chua
       邹文怀 Raymond Chow
       鲍比达 Chris Babida
       黄岳泰 Arthur Wong
       张耀宗 Peter Cheung
       赵鲁江 Lu Chiang Chao
       刘秋生 Chau Sang Lau
       周少龙 Shao Lung Chou
       周惠坤 Thomas Chow

◎简  介
  无比(洪金宝 饰)是巴塞罗那一间侦探社的打手,这天,他的侦探社接到了一单大生意:客人委托他们14天内找到一名叫歌利亚的女子和她的女儿施维亚。因为侦探社的社长侦探在外躲债,而无比又不想眼白白丢了一单生意,于是,他找来在当地经营快餐车的华人青年托马斯(成龙 饰)与大卫(元彪 饰)一起进行调查。                                    
                                通过调查,他们发现歌利亚原来是当地一名富豪伯爵的千金,伯爵已经去世,如果找不到她或者她女儿的话巨额的遗产将落入她的堂兄的口袋,而他们幕后雇主正是这位心怀叵测的堂兄!于是,一幕英雄救美的好戏上演了!
  1. ##### MediaInfo ######
  2. General
  3. Unique ID                                : 222398360563678097978458756954258091677 (0xA7505DC08AFC5CBF561D757465732E9D)
  4. Complete name                            : Wheels.On.Meals.1984.BluRay.1080p.x265.10bit.2Audio-MiniHD.mkv
  5. Format                                   : Matroska
  6. Format version                           : Version 4
  7. File size                                : 5.52 GiB
  8. Duration                                 : 1 h 48 min
  9. Overall bit rate                         : 7 278 kb/s
  10. Encoded date                             : UTC 2018-01-23 19:19:42
  11. Writing application                      : mkvmerge v20.0.0 ('I Am The Sun') 64-bit
  12. Writing library                          : libebml v1.3.5 + libmatroska v1.4.8
  13. Video
  14. ID                                       : 1
  15. Format                                   : HEVC
  16. Format/Info                              : High Efficiency Video Coding
  17. Format profile                           : Main 10@L4@Main
  18. Codec ID                                 : V_MPEGH/ISO/HEVC
  19. Duration                                 : 1 h 48 min
  20. Bit rate                                 : 5 946 kb/s
  21. Width                                    : 1 920 pixels
  22. Height                                   : 1 022 pixels
  23. Display aspect ratio                     : 1.85:1
  24. Frame rate mode                          : Constant
  25. Frame rate                               : 23.976 (24000/1001/53354) FPS
  26. Color space                              : YUV
  27. Chroma subsampling                       : 4:2:0
  28. Bit depth                                : 10 bits
  29. Bits/(Pixel*Frame)                       : 0.126
  30. Stream size                              : 4.51 GiB (82%)
  31. Writing library                          : x265 2.6+2-32e6f04b8713:[Windows][GCC 7.2.0][64 bit] 10bit
  32. Encoding settings                        : cpuid=533541173503 / frame-threads=3 / numa-pools=8 / wpp / no-pmode / no-pme / no-psnr / no-ssim / log-level=2 / input-csp=1 / input-res=1920x1022 / interlace=0 / total-frames=156103 / level-idc=0 / high-tier=1 / uhd-bd=0 / ref=5 / no-allow-non-conformance / no-repeat-headers / annexb / no-aud / no-hrd / info / hash=0 / no-temporal-layers / no-open-gop / min-keyint=1 / keyint=360 / bframes=8 / b-adapt=2 / b-pyramid / bframe-bias=0 / rc-lookahead=40 / lookahead-slices=4 / NTMzNTQ=uuDQuD2mJt9fsCf / scenecut=40 / no-intra-refresh / ctu=32 / min-cu-size=8 / rect / no-amp / max-tu-size=16 / tu-inter-depth=2 / tu-intra-depth=2 / limit-tu=4 / rdoq-level=1 / dynamic-rd=0.00 / ssim-rd / signhide / no-tskip / nr-intra=0 / nr-inter=0 / no-constrained-intra / no-strong-intra-smoothing / max-merge=3 / limit-refs=2 / limit-modes / me=3 / subme=5 / merange=25 / temporal-mvp / weightp / weightb / no-analyze-src-pics / deblock=-1:-1 / no-sao / no-sao-non-deblock / rd=4 / no-early-skip / rskip / no-fast-intra / no-tskip-fast / no-cu-lossless / b-intra / no-splitrd-skip / rdpenalty=1 / psy-rd=0.00 / psy-rdoq=3.00 / no-rd-refine / analysis-reuse-mode=0 / no-lossless / cbqpoffs=-2 / crqpoffs=-2 / rc=crf / crf=19.0 / qcomp=0.80 / qpstep=4 / stats-write=0 / stats-read=0 / ipratio=1.40 / pbratio=1.30 / aq-mode=2 / aq-strength=0.70 / cutree / zone-count=0 / no-strict-cbr / qg-size=16 / no-rc-grain / qpmax=69 / qpmin=0 / no-const-vbv / sar=1 / overscan=0 / videoformat=5 / range=0 / colorprim=1 / transfer=2 / colormatrix=2 / chromaloc=0 / display-window=0 / max-cll=0,0 / min-luma=0 / max-luma=1023 / log2-max-poc-lsb=8 / vui-timing-info / vui-hrd-info / slices=1 / no-opt-qp-pps / no-opt-ref-list-length-pps / no-multi-pass-opt-rps / scenecut-bias=0.05 / no-opt-cu-delta-qp / no-aq-motion / no-hdr / no-hdr-opt / no-dhdr10-opt / analysis-reuse-level=5 / scale-factor=0 / refine-intra=0 / refine-inter=0 / refine-mv=0 / no-limit-sao / ctu-info=0 / no-lowpass-dct / refine-mv-type=0 / copy-pic=1
  33. Language                                 : Chinese
  34. Default                                  : Yes
  35. Forced                                   : No
  36. Color range                              : Limited
  37. Color primaries                          : BT.709
  38. Audio #1
  39. ID                                       : 2
  40. Format                                   : AC-3
  41. Format/Info                              : Audio Coding 3
  42. Commercial name                          : Dolby Digital
  43. Codec ID                                 : A_AC3
  44. Duration                                 : 1 h 48 min
  45. Bit rate mode                            : Constant
  46. Bit rate                                 : 640 kb/s
  47. Channel(s)                               : 6 channels
  48. Channel layout                           : L R C LFE Ls Rs
  49. Sampling rate                            : 48.0 kHz
  50. Frame rate                               : 31.250 FPS (1536 SPF)
  51. Compression mode                         : Lossy
  52. Stream size                              : 496 MiB (9%)
  53. Title                                    : 粤语
  54. Language                                 : Chinese
  55. Service kind                             : Complete Main
  56. Default                                  : Yes
  57. Forced                                   : No
  58. Audio #2
  59. ID                                       : 3
  60. Format                                   : AC-3
  61. Format/Info                              : Audio Coding 3
  62. Commercial name                          : Dolby Digital
  63. Codec ID                                 : A_AC3
  64. Duration                                 : 1 h 48 min
  65. Bit rate mode                            : Constant
  66. Bit rate                                 : 640 kb/s
  67. Channel(s)                               : 6 channels
  68. Channel layout                           : L R C LFE Ls Rs
  69. Sampling rate                            : 48.0 kHz
  70. Frame rate                               : 31.250 FPS (1536 SPF)
  71. Compression mode                         : Lossy
  72. Stream size                              : 496 MiB (9%)
  73. Title                                    : 国语
  74. Language                                 : Chinese
  75. Service kind                             : Complete Main
  76. Default                                  : No
  77. Forced                                   : No
  78. Text #1
  79. ID                                       : 4
  80. Format                                   : PGS
  81. Muxing mode                              : zlib
  82. Codec ID                                 : S_HDMV/PGS
  83. Codec ID/Info                            : Picture based subtitle format used on BDs/HD-DVDs
  84. Duration                                 : 1 h 45 min
  85. Bit rate                                 : 42.4 kb/s
  86. Count of elements                        : 2684
  87. Stream size                              : 32.1 MiB (1%)
  88. Title                                    : 繁体
  89. Language                                 : Chinese
  90. Default                                  : Yes
  91. Forced                                   : No
  92. Text #2
  93. ID                                       : 5
  94. Format                                   : PGS
  95. Muxing mode                              : zlib
  96. Codec ID                                 : S_HDMV/PGS
  97. Codec ID/Info                            : Picture based subtitle format used on BDs/HD-DVDs
  98. Duration                                 : 1 h 46 min
  99. Bit rate                                 : 46.5 kb/s
  100. Count of elements                        : 2558
  101. Stream size                              : 35.6 MiB (1%)
  102. Title                                    : 简体
  103. Language                                 : Chinese
  104. Default                                  : No
  105. Forced                                   : No
  106. Text #3
  107. ID                                       : 6
  108. Format                                   : PGS
  109. Muxing mode                              : zlib
  110. Codec ID                                 : S_HDMV/PGS
  111. Codec ID/Info                            : Picture based subtitle format used on BDs/HD-DVDs
  112. Duration                                 : 1 h 45 min
  113. Bit rate                                 : 31.0 kb/s
  114. Count of elements                        : 2684
  115. Stream size                              : 23.5 MiB (0%)
  116. Title                                    : 英文
  117. Language                                 : English
  118. Default                                  : No
  119. Forced                                   : No





此处一般会放置磁力链或种子下载链接,不过此链接需要注册会员才能看到,点击“立即注册”
磁力链下载【下载链接仅对注册会员开放,登陆后可见】
BT9527电影天堂 1、BT9527电影天堂提供的BT文件均来源于互联网抓取,只供网友学习交流、技术提升使用。
2、我们遵守BitTorrent点对点协议原则,任何版权问题请联系原资源发布商,我们不处理任何版权纠纷,谢谢!如有争议请联系邮箱:BT9527#hotmail.com(#换成@)
3、如果您发现某页面或地址有错误,请联系站长邮箱BT9527#hotmail.com(#换成@),我们会尽快处理。您的热心是对BT9527电影天堂最大的支持。
4、本站建议去正规影院观看电影以支持电影行业发展。
最新回复 (0)

你可以在 登录 or 注册 后,对此帖发表评论!

返回
发新帖