我左眼见到鬼[国粤多音轨/繁英字幕].My.Left.Eye.Sees.Ghosts.2002.BluRay.1080p.x265.10bit.2Audio-MiniHD 5.61GB

版主小s 5月前 196

✔资源类型:暂未分类   ✔电影年份:更 早   ✔电影地区:香港   ✔电影分类:喜剧

◎标  题 我左眼见到鬼
◎译  名 My Left Eye Sees Ghosts
◎年  代 2002
◎产  地 中国香港
◎类  别 喜剧 / 爱情 / 恐怖 / 家庭
◎语  言 粤语
◎上映日期 2002-07-13
◎IMDb评分 6.7/10 (1184人评价)
◎IMDb链接 https://www.imdb.com/title/tt0319901/
◎豆瓣评分 7.5/10 (71447人评价)
◎豆瓣链接 https://movie.douban.com/subject/1299374/
◎片  长 98分钟
◎导  演 杜琪峰 Johnnie To
       韦家辉 Ka-Fai Wai
◎编  剧 韦家辉 Ka-Fai Wai
       欧健儿 Kin-Yee Au
       游乃海 Nai-Hoi Yau
◎演  员 郑秀文 Sammi Cheng
       刘青云 Sean Lau
       应采儿 Cherrie Ying
       李珊珊 San-san Lee
       林雪 Suet Lam
       任达华 Simon Yam
       黄文慧 Man-Wai Wong
       林熙蕾 Kelly Lin
       余袁稳 Yu Yuen Yin
       司马华龙 Wah Lung Szema
       罗雪玲 Elaine Law
       张志平 Chi Ping Chang
       王天林 Tian-lin Wang
       丁云山 Wan San Ding
       杜琪峰 Johnnie To
       韦家辉 Ka-Fai Wai
       黄嘉倩 Cacine Wong
       郑兆强 Siu-keung Cheng
       邱志伟 Chi Wai Yau
       罗永昌 Wing-cheong Law
       余家安 Bruce Yu
       曾伯铨 Steven Tsang
       罗永昌 Wing-cheong Law
       马文现 Stephen Ma
       黄华和 Wah Wo Wong

◎简  介
  何丽珠(郑秀文饰)去加勒比海度假,遇上了一名相貌堂堂知书识礼的男子,虽然才相识7天,二人还是闪电结婚。然而好景不长,男子在潜水中不幸丧生,令何丽珠悲伤万分。                                    
                                这段闪电的姻缘却没有让丽珠很快地忘掉丈夫。她沉浸在生活的阴影当中,久久不能自拔。一天她竟偶然发现,自己左眼可以见到鬼。                                    
                                在此之后,丽珠遇见王劲威(刘青云饰)。他自称是丽珠的小学同学,曾经对她非常的倾心。丽珠开始时嫌他麻烦,然而和他相处过程中,却屡屡得到他的帮助劝慰,让她快点医好丈夫逝去的心病。在王劲威要去投胎之前,丽珠想让他找来丈夫,见上一面,然而王劲威没能找回来。                                    
                                然而,丽珠却慢慢发现,自己的心愿其实并没落空,而且生活的希望也在一点点的回到她的心中。
  1. ##### MediaInfo ######
  2. General
  3. Unique ID                                : 79502757873141404467449219265306062293 (0x3BCFAC98B1A826907F9DC85873C06DD5)
  4. Complete name                            : My.Left.Eye.Sees.Ghosts.2002.BluRay.1080p.x265.10bit.2Audio-MiniHD.mkv
  5. Format                                   : Matroska
  6. Format version                           : Version 4
  7. File size                                : 5.61 GiB
  8. Duration                                 : 1 h 37 min
  9. Overall bit rate                         : 8 222 kb/s
  10. Encoded date                             : UTC 2018-02-12 19:04:50
  11. Writing application                      : mkvmerge v20.0.0 ('I Am The Sun') 64-bit
  12. Writing library                          : libebml v1.3.5 + libmatroska v1.4.8
  13. Video
  14. ID                                       : 1
  15. Format                                   : HEVC
  16. Format/Info                              : High Efficiency Video Coding
  17. Format profile                           : Main 10@L4@Main
  18. Codec ID                                 : V_MPEGH/ISO/HEVC
  19. Duration                                 : 1 h 37 min
  20. Bit rate                                 : 6 779 kb/s
  21. Width                                    : 1 920 pixels
  22. Height                                   : 1 080 pixels
  23. Display aspect ratio                     : 16:9
  24. Frame rate mode                          : Constant
  25. Frame rate                               : 24.000 FPS
  26. Color space                              : YUV
  27. Chroma subsampling                       : 4:2:0
  28. Bit depth                                : 10 bits
  29. Bits/(Pixel*Frame)                       : 0.136
  30. Stream size                              : 4.63 GiB (82%)
  31. Writing library                          : x265 2.6+31-3712d13c09bf:[Windows][MSVC 1912][64 bit] 10bit
  32. Encoding settings                        : cpuid=533541173503 / frame-threads=3 / numa-pools=8 / wpp / no-pmode / no-pme / no-psnr / no-ssim / log-level=2 / csv / csv-log-level=0 / input-csp=1 / input-res=1920x1080 / interlace=0 / total-frames=140721 / level-idc=0 / high-tier=1 / uhd-bd=0 / ref=5 / no-allow-non-conformance / no-repeat-headers / annexb / no-aud / no-hrd / info / hash=0 / no-temporal-layers / no-open-gop / min-keyint=1 / keyint=360 / gop-lookahead=0 / bframes=9 / b-adapt=2 / b-pyramid / bframe-bias=0 / rc-lookahead=60 / lookahead-slices=4 / NTMzNTQ=uuDQuD2mJt9fsCf / scenecut=40 / radl=0 / no-intra-refresh / ctu=32 / min-cu-size=8 / rect / no-amp / max-tu-size=16 / tu-inter-depth=2 / tu-intra-depth=2 / limit-tu=4 / rdoq-level=1 / dynamic-rd=0.00 / ssim-rd / signhide / no-tskip / nr-intra=0 / nr-inter=0 / no-constrained-intra / no-strong-intra-smoothing / max-merge=3 / limit-refs=2 / limit-modes / me=3 / subme=5 / merange=25 / temporal-mvp / weightp / weightb / no-analyze-src-pics / deblock=-1:-1 / no-sao / no-sao-non-deblock / rd=4 / no-early-skip / rskip / no-fast-intra / no-tskip-fast / no-cu-lossless / b-intra / no-splitrd-skip / rdpenalty=1 / psy-rd=0.00 / psy-rdoq=5.00 / no-rd-refine / no-lossless / cbqpoffs=-2 / crqpoffs=-2 / rc=crf / crf=19.0 / qcomp=0.70 / qpstep=4 / stats-write=0 / stats-read=0 / ipratio=1.40 / pbratio=1.30 / aq-mode=2 / aq-strength=0.80 / cutree / zone-count=0 / no-strict-cbr / qg-size=16 / no-rc-grain / qpmax=69 / qpmin=0 / no-const-vbv / sar=0 / overscan=0 / videoformat=5 / range=0 / colorprim=1 / transfer=2 / colormatrix=2 / chromaloc=0 / display-window=0 / max-cll=0,0 / min-luma=0 / max-luma=1023 / log2-max-poc-lsb=8 / vui-timing-info / vui-hrd-info / slices=1 / no-opt-qp-pps / no-opt-ref-list-length-pps / no-multi-pass-opt-rps / scenecut-bias=0.05 / no-opt-cu-delta-qp / no-aq-motion / no-hdr / no-hdr-opt / no-dhdr10-opt / analysis-reuse-level=5 / scale-factor=0 / refine-intra=0 / refine-inter=0 / refine-mv=0 / no-limit-sao / ctu-info=0 / no-lowpass-dct / refine-mv-type=0 / copy-pic=1
  33. Language                                 : Chinese
  34. Default                                  : Yes
  35. Forced                                   : No
  36. Color range                              : Limited
  37. Color primaries                          : BT.709
  38. Audio #1
  39. ID                                       : 4
  40. Format                                   : AC-3
  41. Format/Info                              : Audio Coding 3
  42. Commercial name                          : Dolby Digital
  43. Codec ID                                 : A_AC3
  44. Duration                                 : 1 h 37 min
  45. Bit rate mode                            : Constant
  46. Bit rate                                 : 640 kb/s
  47. Channel(s)                               : 6 channels
  48. Channel layout                           : L R C LFE Ls Rs
  49. Sampling rate                            : 48.0 kHz
  50. Frame rate                               : 31.250 FPS (1536 SPF)
  51. Compression mode                         : Lossy
  52. Stream size                              : 447 MiB (8%)
  53. Title                                    : 粤语
  54. Language                                 : Chinese
  55. Service kind                             : Complete Main
  56. Default                                  : Yes
  57. Forced                                   : No
  58. Audio #2
  59. ID                                       : 5
  60. Format                                   : AC-3
  61. Format/Info                              : Audio Coding 3
  62. Commercial name                          : Dolby Digital
  63. Codec ID                                 : A_AC3
  64. Duration                                 : 1 h 37 min
  65. Bit rate mode                            : Constant
  66. Bit rate                                 : 640 kb/s
  67. Channel(s)                               : 6 channels
  68. Channel layout                           : L R C LFE Ls Rs
  69. Sampling rate                            : 48.0 kHz
  70. Frame rate                               : 31.250 FPS (1536 SPF)
  71. Compression mode                         : Lossy
  72. Stream size                              : 447 MiB (8%)
  73. Title                                    : 国语
  74. Language                                 : Chinese
  75. Service kind                             : Complete Main
  76. Default                                  : No
  77. Forced                                   : No
  78. Text #1
  79. ID                                       : 2
  80. Format                                   : PGS
  81. Muxing mode                              : zlib
  82. Codec ID                                 : S_HDMV/PGS
  83. Codec ID/Info                            : Picture based subtitle format used on BDs/HD-DVDs
  84. Title                                    : 繁体
  85. Language                                 : Chinese
  86. Default                                  : Yes
  87. Forced                                   : No
  88. Text #2
  89. ID                                       : 3
  90. Format                                   : PGS
  91. Muxing mode                              : zlib
  92. Codec ID                                 : S_HDMV/PGS
  93. Codec ID/Info                            : Picture based subtitle format used on BDs/HD-DVDs
  94. Title                                    : 英文
  95. Language                                 : English
  96. Default                                  : No
  97. Forced                                   : No
  98. Menu
  99. 00:00:00.000                             : en:Chapter 01
  100. 00:02:25.000                             : en:Chapter 02
  101. 00:07:39.125                             : en:Chapter 03
  102. 00:13:37.708                             : en:Chapter 04
  103. 00:17:44.416                             : en:Chapter 05
  104. 00:22:57.208                             : en:Chapter 06
  105. 00:28:36.166                             : en:Chapter 07
  106. 00:32:16.458                             : en:Chapter 08
  107. 00:36:58.083                             : en:Chapter 09
  108. 00:43:22.708                             : en:Chapter 10
  109. 00:50:14.375                             : en:Chapter 11
  110. 00:55:00.750                             : en:Chapter 12
  111. 01:00:23.875                             : en:Chapter 13
  112. 01:03:46.125                             : en:Chapter 14
  113. 01:05:36.291                             : en:Chapter 15
  114. 01:10:38.333                             : en:Chapter 16
  115. 01:14:08.416                             : en:Chapter 17
  116. 01:20:26.000                             : en:Chapter 18
  117. 01:26:50.916                             : en:Chapter 19
  118. 01:32:51.916                             : en:Chapter 20





此处一般会放置磁力链或种子下载链接,不过此链接需要注册会员才能看到,点击“立即注册”
磁力链下载【下载链接仅对注册会员开放,登陆后可见】
BT9527电影天堂 1、BT9527电影天堂提供的BT文件均来源于互联网抓取,只供网友学习交流、技术提升使用。
2、我们遵守BitTorrent点对点协议原则,任何版权问题请联系原资源发布商,我们不处理任何版权纠纷,谢谢!如有争议请联系邮箱:BT9527#hotmail.com(#换成@)
3、如果您发现某页面或地址有错误,请联系站长邮箱BT9527#hotmail.com(#换成@),我们会尽快处理。您的热心是对BT9527电影天堂最大的支持。
4、本站建议去正规影院观看电影以支持电影行业发展。
最新回复 (0)

你可以在 登录 or 注册 后,对此帖发表评论!

返回
发新帖