方世玉[国粤英多音轨/简繁英字幕].The.Legend.1993.BluRay.1080p.x265.10bit.3Audio-MiniHD 9.47GB

版主小s 5月前 198

✔资源类型:暂未分类   ✔电影年份:更 早   ✔电影地区:香港   ✔电影分类:喜剧

◎标  题 方世玉
◎译  名 功夫皇帝方世玉 / Fong Sai Yuk / The Legend
◎年  代 1993
◎产  地 中国香港
◎类  别 喜剧 / 动作 / 武侠 / 古装
◎语  言 粤语
◎上映日期 1993-03-04(中国香港)
◎IMDb评分 7.2/10 (7729人评价)
◎IMDb链接 https://www.imdb.com/title/tt0106936/
◎豆瓣评分 8.0/10 (140414人评价)
◎豆瓣链接 https://movie.douban.com/subject/1297763/
◎片  长 106分钟
◎导  演 元奎 Corey Yuen
◎编  剧 刘镇伟 Jeffrey Lau
       陈建忠 John Chan Kin-Chung
       蔡康永 Kevin Tsai
◎演  员 李连杰 Jet Li
       萧芳芳 Josephine Siao
       陈松勇 Sung Young Chen
       李嘉欣 Michelle Reis
       胡慧中 Sibelle Hu
       赵文卓 Man Cheuk Chiu
       朱江 Kong Chu
       郑少秋 Adam Cheng
       郭涛 Tao Guo
       高西安 Xi'an Gao
       刘金山 Jinshan Liu
       俞立文 Liwen Yu
       刘红梅 Hongmei Liu
       杨青 Qing Yang
       潘粤明 Yueming Pan
       孙晨曦 Chenxi Sun
       陈龙 Peter Chan Lung
       许鞍华 Ann Hui
       李连杰 Jet Li
       刘思乐 Si-Lok Lau
       成志谷 Zhigu Cheng
       刘长安 Chang'an Liu
       朱嘉懿 Julia Chu
       黄霑 James Wong
       雷颂德 Mark Lui
       戴乐民 Romeo Díaz
       马楚成 Jingle Ma
       陈国雄 Kwok Hung Chan
       张耀宗 Peter Cheung
       许鞍华 Ann Hui
       刘敏雄 Man Hung Lau
       王春朴 Chunpu Wang
       付德林 Delin Fu
       陈顾方 Shirley Chan
       卢瑞莲 Sui Lin Lo
       刘长安 Chang'an Liu
       梁克敏 Kemin Liang
       林炳坤 Bingkun Lin
       吕荫培 Yinpei Lü
       元德 Tak Yuen
       周少龙 Shao Lung Chou
       才汝彬 Alan Chui

◎标  签 李连杰 / 动作 / 香港 / 武侠 / 香港电影 / 喜剧 / 功夫 / 方世玉

◎简  介
  方世玉(李连杰 饰)原是城中纨绔子弟,好打抱不平。一日,他闻说外省富豪雷老虎在次设下擂台,比武招亲,又听讲雷小姐貌美如花,遂前往比武招亲。当方世玉过赢准备打赢未来岳母李小环时,一阵风吹过,将台上坐着的小姐的盖头吹了起来,他发现竟是一名丑女时,马上故意认输,溜之大吉。                                    
                                方世玉的母亲苗翠花(萧芳芳 饰)听说儿子擂台上败下阵,自觉颜面无光,于是化身方世玉的哥哥方大玉前往打擂,一举打败了李小环。岂料雷老虎当晚即派人来接方大玉成亲。世玉为救母亲,只有代替母亲前往雷家成亲。                                    
                                母子两计划新婚之后趁回门的时候一起出逃,岂料方世玉的父亲方德回来了!
  1. ##### MediaInfo ######
  2. General
  3. Unique ID                                : 138564464985739951199300370547168618421 (0x683E8B947B5AED9131F436AD6315A7B5)
  4. Complete name                            : The.Legend.1993.BluRay.1080p.x265.10bit.3Audio-MiniHD.mkv
  5. Format                                   : Matroska
  6. Format version                           : Version 4
  7. File size                                : 9.47 GiB
  8. Duration                                 : 1 h 35 min
  9. Overall bit rate                         : 14.2 Mb/s
  10. Encoded date                             : UTC 2018-01-24 14:47:16
  11. Writing application                      : mkvmerge v20.0.0 ('I Am The Sun') 64-bit
  12. Writing library                          : libebml v1.3.5 + libmatroska v1.4.8
  13. Video
  14. ID                                       : 1
  15. Format                                   : HEVC
  16. Format/Info                              : High Efficiency Video Coding
  17. Format profile                           : Main 10@L4@Main
  18. Codec ID                                 : V_MPEGH/ISO/HEVC
  19. Duration                                 : 1 h 35 min
  20. Bit rate                                 : 12.6 Mb/s
  21. Width                                    : 1 920 pixels
  22. Height                                   : 1 080 pixels
  23. Display aspect ratio                     : 16:9
  24. Frame rate mode                          : Constant
  25. Frame rate                               : 23.976 (24000/1001/53354) FPS
  26. Color space                              : YUV
  27. Chroma subsampling                       : 4:2:0
  28. Bit depth                                : 10 bits
  29. Bits/(Pixel*Frame)                       : 0.253
  30. Stream size                              : 8.41 GiB (89%)
  31. Writing library                          : x265 2.6+2-32e6f04b8713:[Windows][GCC 7.2.0][64 bit] 10bit
  32. Encoding settings                        : cpuid=533541173503 / frame-threads=3 / numa-pools=8 / wpp / no-pmode / no-pme / no-psnr / no-ssim / log-level=2 / input-csp=1 / input-res=1920x1080 / interlace=0 / total-frames=137544 / level-idc=0 / high-tier=1 / uhd-bd=0 / ref=5 / no-allow-non-conformance / no-repeat-headers / annexb / no-aud / no-hrd / info / hash=0 / no-temporal-layers / no-open-gop / min-keyint=1 / keyint=360 / bframes=8 / b-adapt=2 / b-pyramid / bframe-bias=0 / rc-lookahead=40 / lookahead-slices=4 / NTMzNTQ=uuDQuD2mJt9fsCf / scenecut=40 / no-intra-refresh / ctu=32 / min-cu-size=8 / rect / no-amp / max-tu-size=16 / tu-inter-depth=2 / tu-intra-depth=2 / limit-tu=4 / rdoq-level=1 / dynamic-rd=0.00 / ssim-rd / signhide / no-tskip / nr-intra=0 / nr-inter=0 / no-constrained-intra / no-strong-intra-smoothing / max-merge=3 / limit-refs=2 / limit-modes / me=3 / subme=5 / merange=25 / temporal-mvp / weightp / weightb / no-analyze-src-pics / deblock=-1:-1 / no-sao / no-sao-non-deblock / rd=4 / no-early-skip / rskip / no-fast-intra / no-tskip-fast / no-cu-lossless / b-intra / no-splitrd-skip / rdpenalty=1 / psy-rd=0.00 / psy-rdoq=3.00 / no-rd-refine / analysis-reuse-mode=0 / no-lossless / cbqpoffs=-2 / crqpoffs=-2 / rc=crf / crf=20.0 / qcomp=0.70 / qpstep=4 / stats-write=0 / stats-read=0 / ipratio=1.40 / pbratio=1.30 / aq-mode=2 / aq-strength=0.80 / cutree / zone-count=0 / no-strict-cbr / qg-size=16 / no-rc-grain / qpmax=69 / qpmin=0 / no-const-vbv / sar=1 / overscan=0 / videoformat=5 / range=0 / colorprim=1 / transfer=2 / colormatrix=2 / chromaloc=0 / display-window=0 / max-cll=0,0 / min-luma=0 / max-luma=1023 / log2-max-poc-lsb=8 / vui-timing-info / vui-hrd-info / slices=1 / no-opt-qp-pps / no-opt-ref-list-length-pps / no-multi-pass-opt-rps / scenecut-bias=0.05 / no-opt-cu-delta-qp / no-aq-motion / no-hdr / no-hdr-opt / no-dhdr10-opt / analysis-reuse-level=5 / scale-factor=0 / refine-intra=0 / refine-inter=0 / refine-mv=0 / no-limit-sao / ctu-info=0 / no-lowpass-dct / refine-mv-type=0 / copy-pic=1
  33. Language                                 : Chinese
  34. Default                                  : Yes
  35. Forced                                   : No
  36. Color range                              : Limited
  37. Color primaries                          : BT.709
  38. Audio #1
  39. ID                                       : 2
  40. Format                                   : AC-3
  41. Format/Info                              : Audio Coding 3
  42. Commercial name                          : Dolby Digital
  43. Codec ID                                 : A_AC3
  44. Duration                                 : 1 h 35 min
  45. Bit rate mode                            : Constant
  46. Bit rate                                 : 448 kb/s
  47. Channel(s)                               : 2 channels
  48. Channel layout                           : L R
  49. Sampling rate                            : 48.0 kHz
  50. Frame rate                               : 31.250 FPS (1536 SPF)
  51. Compression mode                         : Lossy
  52. Stream size                              : 306 MiB (3%)
  53. Title                                    : 粤语
  54. Language                                 : Chinese
  55. Service kind                             : Complete Main
  56. Default                                  : Yes
  57. Forced                                   : No
  58. Audio #2
  59. ID                                       : 3
  60. Format                                   : AC-3
  61. Format/Info                              : Audio Coding 3
  62. Commercial name                          : Dolby Digital
  63. Codec ID                                 : A_AC3
  64. Duration                                 : 1 h 35 min
  65. Bit rate mode                            : Constant
  66. Bit rate                                 : 448 kb/s
  67. Channel(s)                               : 6 channels
  68. Channel layout                           : L R C LFE Ls Rs
  69. Sampling rate                            : 48.0 kHz
  70. Frame rate                               : 31.250 FPS (1536 SPF)
  71. Compression mode                         : Lossy
  72. Stream size                              : 306 MiB (3%)
  73. Title                                    : 国语
  74. Language                                 : Chinese
  75. Service kind                             : Complete Main
  76. Default                                  : No
  77. Forced                                   : No
  78. Audio #3
  79. ID                                       : 4
  80. Format                                   : AC-3
  81. Format/Info                              : Audio Coding 3
  82. Commercial name                          : Dolby Digital
  83. Codec ID                                 : A_AC3
  84. Duration                                 : 1 h 35 min
  85. Bit rate mode                            : Constant
  86. Bit rate                                 : 640 kb/s
  87. Channel(s)                               : 6 channels
  88. Channel layout                           : L R C LFE Ls Rs
  89. Sampling rate                            : 48.0 kHz
  90. Frame rate                               : 31.250 FPS (1536 SPF)
  91. Compression mode                         : Lossy
  92. Stream size                              : 438 MiB (5%)
  93. Title                                    : 英语
  94. Language                                 : English
  95. Service kind                             : Complete Main
  96. Default                                  : No
  97. Forced                                   : No
  98. Text #1
  99. ID                                       : 5
  100. Format                                   : PGS
  101. Muxing mode                              : zlib
  102. Codec ID                                 : S_HDMV/PGS
  103. Codec ID/Info                            : Picture based subtitle format used on BDs/HD-DVDs
  104. Duration                                 : 1 h 32 min
  105. Bit rate                                 : 28.0 kb/s
  106. Count of elements                        : 2556
  107. Stream size                              : 18.6 MiB (0%)
  108. Title                                    : 繁体
  109. Language                                 : Chinese
  110. Default                                  : Yes
  111. Forced                                   : No
  112. Text #2
  113. ID                                       : 6
  114. Format                                   : PGS
  115. Muxing mode                              : zlib
  116. Codec ID                                 : S_HDMV/PGS
  117. Codec ID/Info                            : Picture based subtitle format used on BDs/HD-DVDs
  118. Duration                                 : 1 h 32 min
  119. Bit rate                                 : 27.1 kb/s
  120. Count of elements                        : 2556
  121. Stream size                              : 18.0 MiB (0%)
  122. Title                                    : 简体
  123. Language                                 : Chinese
  124. Default                                  : No
  125. Forced                                   : No
  126. Text #3
  127. ID                                       : 7
  128. Format                                   : PGS
  129. Muxing mode                              : zlib
  130. Codec ID                                 : S_HDMV/PGS
  131. Codec ID/Info                            : Picture based subtitle format used on BDs/HD-DVDs
  132. Duration                                 : 1 h 31 min
  133. Bit rate                                 : 44.4 kb/s
  134. Count of elements                        : 1803
  135. Stream size                              : 29.2 MiB (0%)
  136. Title                                    : 英文
  137. Language                                 : English
  138. Default                                  : No
  139. Forced                                   : No





此处一般会放置磁力链或种子下载链接,不过此链接需要注册会员才能看到,点击“立即注册”
磁力链下载【下载链接仅对注册会员开放,登陆后可见】
BT9527电影天堂 1、BT9527电影天堂提供的BT文件均来源于互联网抓取,只供网友学习交流、技术提升使用。
2、我们遵守BitTorrent点对点协议原则,任何版权问题请联系原资源发布商,我们不处理任何版权纠纷,谢谢!如有争议请联系邮箱:BT9527#hotmail.com(#换成@)
3、如果您发现某页面或地址有错误,请联系站长邮箱BT9527#hotmail.com(#换成@),我们会尽快处理。您的热心是对BT9527电影天堂最大的支持。
4、本站建议去正规影院观看电影以支持电影行业发展。
最新回复 (0)

你可以在 登录 or 注册 后,对此帖发表评论!

返回
发新帖